Психопаспорт (Фильм) / Психо-пасс (Фильм) / Gekijouban Psycho-Pass (Сиотани Наоёси) [Movie] [RUS(int), JAP+Sub] [Софтсаб] [2015, триллер, фантастика, киберпанк, BDRip] [720p] [8bit]

Ответить на тему
 

Rambotnik ®

Стаж: 6 лет 7 месяцев

Сообщений: 1274

Симпатии: 81

Психопаспорт (Фильм) / Gekijouban Psycho-Pass
Страна: Япония
Год выпуска: 2015 г.
Жанр: триллер, фантастика, киберпанк
Тип: Movie
Продолжительность: ~115 мин.
Режиссер: Сиотани Наоёси
Студия: Production I.G
Перевод: St_Ranger; Редакция: Nerevar, Sovereign; Перевод песен/Оформление: Jarly (GMC)
Озвучивание: двухголосое (муж./жен.) от Zendos & Eladiel (Onibaku Group)
Тайминг: LiaNdrY
Описание: 2116 год. Японское правительство начинает экспортировать автономных роботов-дронов с системой Сивиллы в «проблемные» страны, и Сивилла распространяется по всему миру. В качестве эксперимента решается запустить Сивиллу в ЮВАС (Юго-Восточных Азиатский Союз) — государство, истерзанное гражданской войной. Опыт оказался удачным, и благодаря новой системе прибрежный город Шамбала начинает благоденствовать в обстановке временного перемирия и безопасности. Однако затем СЮВАС посылает в Японию своих агентов с целью совершить теракт. Те успешно проникают сквозь охрану Сивиллы и наносят удар изнутри. Подозрение падает на конкретного человека. Ответственная за проведение расследования, следователь Цунэмори отправляется в Шамбалу. Истинная справедливость восстановит свою чистоту на новой земле.
Качество: BDRip
Тип релиза: Без хардсаба
Формат видео: MKV
Релиз/Автор рипа: Ohys-Raws
Видео: x264 (8 bit), 1280x720, 2278 Кbps, 23.976 fps
Аудио RUS: AC3, 16 bit, 48000 Hz, 640 Kbps, 6 ch (в составе контейнера)
Аудио JAP: AC3, 16 bit, 48000 Hz, 640 Kbps, 6 ch
Субтитры RUS 1: ASS, внутренние - Надписи
Субтитры RUS 2: ASS, внутренние - Полные

Тех. данные

General
Unique ID : 203101432814779767022025638188755926407 (0x98CBE9C2456F1F9C96BD4DC2FC733D87)
Format : Matroska
Format version : Version 4 / Version 2
File size : 2.83 GiB
Duration : 1h 53mn
Overall bit rate : 3 562 Kbps
Encoded date : UTC 2015-09-09 18:15:25
Writing application : mkvmerge v8.3.0 ('Over the Horizon') 64bit
Writing library : libebml v1.3.1 + libmatroska v1.4.2
DURATION : 01:52:59.850000000
NUMBER_OF_FRAMES : 1200
NUMBER_OF_BYTES : 101411
_STATISTICS_WRITING_APP : mkvmerge v8.3.0 ('Over the Horizon') 64bit
_STATISTICS_WRITING_DATE_UTC : 2015-09-09 18:15:25
_STATISTICS_TAGS : BPS DURATION NUMBER_OF_FRAMES NUMBER_OF_BYTES
Attachment : Yes / Yes / Yes / Yes / Yes / Yes / Yes
Video
ID : 1
Format : AVC
Format/Info : Advanced Video Codec
Format profile : [email protected]
Format settings, CABAC : Yes
Format settings, ReFrames : 4 frames
Codec ID : V_MPEG4/ISO/AVC
Duration : 1h 53mn
Bit rate : 2 211 Kbps
Width : 1 280 pixels
Height : 720 pixels
Display aspect ratio : 16:9
Frame rate mode : Constant
Frame rate : 23.976 fps
Color space : YUV
Chroma subsampling : 4:2:0
Bit depth : 8 bits
Scan type : Progressive
Bits/(Pixel*Frame) : 0.100
Stream size : 1.76 GiB (62%)
Writing library : x264 core 146 r2538 121396c
Encoding settings : cabac=1 / ref=3 / deblock=1:0:0 / analyse=0x1:0x131 / me=umh / subme=9 / psy=1 / psy_rd=1.00:0.00 / mixed_ref=1 / me_range=32 / chroma_me=1 / trellis=1 / 8x8dct=0 / cqm=0 / deadzone=21,11 / fast_pskip=1 / chroma_qp_offset=-2 / threads=12 / lookahead_threads=1 / sliced_threads=0 / nr=0 / decimate=1 / interlaced=0 / bluray_compat=0 / constrained_intra=0 / bframes=3 / b_pyramid=2 / b_adapt=1 / b_bias=0 / direct=1 / weightb=1 / open_gop=0 / weightp=2 / keyint=240 / keyint_min=1 / scenecut=40 / intra_refresh=0 / rc_lookahead=40 / rc=crf / mbtree=1 / crf=18.0 / qcomp=0.60 / qpmin=0 / qpmax=69 / qpstep=4 / ip_ratio=1.40 / aq=1:1.50
Default : Yes
Forced : Yes
Audio #1
ID : 2
Format : AC-3
Format/Info : Audio Coding 3
Mode extension : CM (complete main)
Format settings, Endianness : Big
Codec ID : A_AC3
Duration : 1h 53mn
Bit rate mode : Constant
Bit rate : 640 Kbps
Channel count : 6 channels
Channel positions : Front: L C R, Side: L R, LFE
Sampling rate : 48.0 KHz
Bit depth : 16 bits
Compression mode : Lossy
Stream size : 520 MiB (18%)
Title : Zendos & Eladiel
Language : Russian
Default : Yes
Forced : Yes
Audio #2
ID : 3
Format : AC-3
Format/Info : Audio Coding 3
Mode extension : CM (complete main)
Format settings, Endianness : Big
Codec ID : A_AC3
Duration : 1h 53mn
Bit rate mode : Constant
Bit rate : 640 Kbps
Channel count : 6 channels
Channel positions : Front: L C R, Side: L R, LFE
Sampling rate : 48.0 KHz
Bit depth : 16 bits
Compression mode : Lossy
Stream size : 520 MiB (18%)
Title : Japanese
Language : Japanese
Default : No
Forced : No
Text #1
ID : 4
Format : ASS
Codec ID : S_TEXT/ASS
Codec ID/Info : Advanced Sub Station Alpha
Compression mode : Lossless
Title : Надписи
Language : Russian
Default : Yes
Forced : Yes
Text #2
ID : 5
Format : ASS
Codec ID : S_TEXT/ASS
Codec ID/Info : Advanced Sub Station Alpha
Compression mode : Lossless
Title : Субтитры
Language : Russian
Default : No
Forced : No
__________________________
Duration: 01:53:42 (6821.86)
Track #1: video
lang: und (1)
codc: V_MPEG4/ISO/AVC -> H264/AVC (22)
reso: 1280x720 -> 16:9
fram: 23.976 fps
rate: 2278 kbps (2277.89)
dura: 01:53:42 (6821.77)
size: 1.81 GB (1942404166)
Track #2: audio (Zendos & Eladiel)
lang: rus -> Russian (15)
codc: A_AC3 -> AC3 (2)
chan: 6 -> 5.1 Surround
samp: 48000 Hz
rate: 640 kbps (640.04)
dura: 01:53:42 (6821.76)
size: 520.49 MB (545776667)
Track #3: audio (Japanese)
lang: jpn -> Japanese (2)
codc: A_AC3 -> AC3 (2)
chan: 6 -> 5.1 Surround
samp: 48000 Hz
rate: 640 kbps (640.04)
dura: 01:53:42 (6821.76)
size: 520.49 MB (545776666)
Track #4: subtitles (￐ン￐ᄚ￐ᄡ￐﾿￐ᄌ￑チ￐ᄌ)
lang: rus -> Russian (15)
type: S_TEXT/ASS -> ASS (5)
size: 35.92 KB (36782)
Track #5: subtitles (￐ᄀ￑テ￐ᄆ￑ツ￐ᄌ￑ツ￑タ￑ヒ)
lang: rus -> Russian (15)
type: S_TEXT/ASS -> ASS (5)
size: 99.03 KB (101411)
Sizes: (check sanity)
disk: 2.83 GB (3037015582)
atts: 1.07 MB (1126874)
trac: 2.83 GB (3034095692) [based on track size]
bitr: 2.83 GB (3033959369) [based on bitrate]
tdif: 1.71 MB (1793016) 0.05%
bdif: 1.84 MB (1929338) 0.06%

Скриншоты



Создавать темы 10-Сен-2015 11:32

[Профиль]  [ЛС] 

Inquisitor

Стаж: 5 лет 11 месяцев

Сообщений: 133

Симпатии: 6

А с озвучкой от Анидаба у кого нибудь есть? Выложите кто то пожалуйста!

Создавать темы 18-Сен-2015 17:19

[Профиль]  [ЛС] 
Показать сообщения:    
Ответить на тему

Текущее время: 15-Дек 02:04

Часовой пояс: UTC + 5



Вы не можете начинать темы
Вы не можете отвечать на сообщения
Вы не можете редактировать свои сообщения
Вы не можете удалять свои сообщения
Вы не можете голосовать в опросах
Вы не можете прикреплять файлы к сообщениям
Вы не можете скачивать файлы