Айка Зеро / AIKa Zero (Ямаути Нориясу) [OVA] [без хардсаба] [3 из 3] [RUS(ext), JAP+SUB] [2009 г., приключения, этти, BDRip] [720p]

Ответить на тему
 

Razrushitel ®

Стаж: 4 года 5 месяцев

Сообщений: 148

Симпатии: 42

- Страна: Япония
Год выпуска: 2009
Выпуск: c 06.07.2009 по 22.12.2009
Жанр: приключения, этти
Тип: OVA (3 эп.), 27 мин.-Перевод:
  • русские субтитры от Advokat & Jenia aka Zub & Мария Гостюхина (полные/вспомогательные)
Озвучивание:
  • двухголосая (жен./муж.) от Persona99 & MaxDamage (GetSmart)
-Режиссер: Ямаути Нориясу
Сценарий: Канэмаки Кэнъити
Студия: Studio Fantasia-Описание: Со времени событий предыдущей части прошло два года, Айке уже девятнадцать лет, и она работает в уже знакомом агентстве. На сей раз нас ждет детективное расследование о загадочной пропаже школьниц, за которой стоит школьный совет и таинственная сила, выглядящая как столб света из пола, атакующая девочек лучами света и поражающая их в мягкое место. Старая знакомая Айки, Эри, поручает ей разобраться в этом загадочном деле, хотя на самом деле сама ищет новых приключений. Удастся ли нашей героине разгадать, откуда растут таинственные лучи света и зачем они творят сей беспредел?
© Nastanados--Информационные ссылки: AniDB || World Art || MyAnimeList--MyAnimeList.NET: 6.13 (scored by 3477 users)
Ranked: #5824--Качество: BDRip
Encode: Winter - RG Pantheon || Re-encoded: Razrushitel
Тип видео: без хардсаба || Формат: mkv
Видео: x264 (Hi10p), 1280x720, ~600 Kbps, 23.976 fps
Аудио JAP: AC3, 48000Hz, ~128 Kbps, 2ch (в составе контейнера)
Аудио RUS: AC3, 48000Hz, ~128 Kbps, 2ch (внешними файлами)
-

Список эпизодов

01. White Knights
02. E.T.A.I.
03. Zero

Скриншоты

Подробные тех. данные

Общее
Уникальный идентификатор                 : 226140135618547841172280263695944136740 (0xAA210181741F27BBBCC970FC5E003824)
Полное имя                               : E:\*****\Aika Zero [BD] [720p]\Aika Zero - 01 [Hi 10] [BD 720p].mkv
Формат                                   : Matroska
Версия формата                           : Version 2
Размер файла                             : 131 Мбайт
Продолжительность                        : 26 м. 52 с.
Общий поток                              : 679 Кбит/сек
Дата кодирования                         : UTC 2015-07-04 10:07:55
Программа кодирования                    : mkvmerge v7.7.0 ('Six Voices') 32bit built on Feb 28 2015 23:23:00
Библиотека кодирования                   : libebml v1.3.1 + libmatroska v1.4.2
_STATISTICS_WRITING_APP                  : mkvmerge v7.7.0 ('Six Voices') 32bit built on Feb 28 2015 23:23:00
_STATISTICS_WRITING_DATE_UTC             : 2015-07-04 10:07:55
_STATISTICS_TAGS                         : BPS DURATION NUMBER_OF_FRAMES NUMBER_OF_BYTES
DURATION                                 : 00:26:52.128000000
NUMBER_OF_FRAMES                         : 50379
NUMBER_OF_BYTES                          : 25794048
Видео
Идентификатор                            : 1
Формат                                   : AVC
Формат/Информация                        : Advanced Video Codec
Профиль формата                          : High [email protected]
Параметр CABAC формата                   : Да
Параметр ReFrames формата                : 4 кадра
Идентификатор кодека                     : V_MPEG4/ISO/AVC
Продолжительность                        : 26 м. 52 с.
Битрейт                                  : 538 Кбит/сек
Ширина                                   : 1280 пикселей
Высота                                   : 720 пикселей
Соотношение сторон                       : 16:9
Режим частоты кадров                     : Постоянный
Частота кадров                           : 23,976 кадра/сек
Цветовое пространство                    : YUV
Субдискретизация насыщенности            : 4:2:0
Битовая глубина                          : 10 бит
Тип развёртки                            : Прогрессивная
Бит/(Пиксели*Кадры)                      : 0.024
Размер потока                            : 103 Мбайт (79%)
Библиотека кодирования                   : x264 core 146 r2538 121396c
Настройки программы                      : cabac=1 / ref=3 / deblock=1:0:0 / analyse=0x3:0x113 / me=hex / subme=7 / psy=1 / psy_rd=1.00:0.00 / mixed_ref=1 / me_range=16 / chroma_me=1 / trellis=1 / 8x8dct=1 / cqm=0 / deadzone=21,11 / fast_pskip=1 / chroma_qp_offset=-2 / threads=3 / lookahead_threads=1 / sliced_threads=0 / nr=0 / decimate=1 / interlaced=0 / bluray_compat=0 / constrained_intra=0 / bframes=3 / b_pyramid=2 / b_adapt=1 / b_bias=0 / direct=1 / weightb=1 / open_gop=0 / weightp=2 / keyint=240 / keyint_min=23 / scenecut=40 / intra_refresh=0 / rc_lookahead=40 / rc=crf / mbtree=1 / crf=23.0 / qcomp=0.60 / qpmin=0 / qpmax=81 / qpstep=4 / ip_ratio=1.40 / aq=1:1.00
Default                                  : Да
Forced                                   : Нет
Аудио
Идентификатор                            : 2
Формат                                   : AC-3
Формат/Информация                        : Audio Coding 3
Расширение режима                        : CM (complete main)
Параметр Endianness формата              : Big
Идентификатор кодека                     : A_AC3
Продолжительность                        : 26 м. 52 с.
Вид битрейта                             : Постоянный
Битрейт                                  : 128 Кбит/сек
Каналы                                   : 2 канала
Расположение каналов                     : Front: L R
Частота                                  : 48,0 КГц
Битовая глубина                          : 16 бит
Метод сжатия                             : С потерями
Размер потока                            : 24,6 Мбайт (19%)
Язык                                     : Japanese
Default                                  : Да
Forced                                   : Нет

Информация о релизе

  • Данный релиз предназначен для просмотра на ПК. Воспроизведение на иных проигрывателях не гарантируется. Для просмотра рекомендуется Media Player Classic с установленным пакетом кодеков K-Lite.
  • Данный релиз содержит 10-битное видео (Hi10p). Для корректного воспроизведения обязательно используйте кодеки, поддерживающие 10-битное видео.
  • Данный релиз предназначен для просмотра с внешними субтитрами и внешними звуковыми дорожками.
    • Для просмотра с внешней звуковой дорожкой нужно:
      перекинуть файлы .mka из папки "RUS Sound [<автор(ы) озвучки>]" в одну папку с видео и переключить звуковую дорожку в плеере при просмотре.
    • Для просмотра с субтитрами нужно:
      перекинуть файлы .ass из папки "RUS Subtitles [<автор(ы) перевода>]" в одну папку с видео - плеер подгрузит их автоматически при открытии видео.

Создавать темы 10-Сен-2015 12:50

[Профиль]  [ЛС] 
Показать сообщения:    
Ответить на тему

Текущее время: 15-Дек 09:43

Часовой пояс: UTC + 5



Вы не можете начинать темы
Вы не можете отвечать на сообщения
Вы не можете редактировать свои сообщения
Вы не можете удалять свои сообщения
Вы не можете голосовать в опросах
Вы не можете прикреплять файлы к сообщениям
Вы не можете скачивать файлы