Дом / Home (Тим Джонсон) [мультфильм, фантастика, фэнтези, комедия, приключения, семейный, 2015] BDRip 1080p, Dub+Sub [3D-Video | Лицензия]

Ответить на тему
 

greensniper ®

Стаж: 2 года 5 месяцев

Сообщений: 16

Симпатии: 10

Дом / Home-- Год выпуска: 2015
Страна: США (20th Century Fox, DreamWorks Animation SKG)
Жанр: Мультфильм, Фантастика, Комедия, Приключения, Семейный
Продолжительность: 01:33:47
Перевод: Профессиональный дублированный
Режиссер: Тим Джонсон / Tim Johnson
В ролях: Oh - Джим Парсонс (Андрей Зайцев)
Gratuity «Tip» Tucci - Рианна (Аделина Червякова)
Captain Smek - Стив Мартин (Максим Сергеев)
Описание: Захватив Землю, раса пришельцев Був тут же начинает заниматься её благоустройством и реорганизацией. «Не стоит благодарности!» — заявляют они землянам, собранным на время в отдельных резервациях. Находчивая и рисковая девочка по имени Дар, чудом сбежавшая от пришельцев, встречает на своем пути самого раздражающе-оптимистичного Бува по имени О, отвергнутого своими инопланетными собратьями. Этой, казалось бы, несовместимой парочке предстоит спасти нашу планету. Хорошо, что у них есть летающий автомобиль!
Качество: BDRip (by Ash61)
Формат: MKV
Формат 3D: Half OverUnder / Вертикальная анаморфная стереопара
Видео кодек: AVC
Аудио кодек: AC3
Видео: AVC / 23,976 fps / 1920х1080p / 11.5 Mbps
Аудио:
#1 - Русский / AC3 / 48 KHz / 5.1 ch / 640 Kbps (Дубляж - BD Eur)
#2 - Украинский / AC3 / 48 KHz / 5.1 ch / 448 Kbps (Дубляж - BD Eur)
#3 - Английский / AC3 / 48 KHz / 5.1 ch / 640 Kbps (Original - BD 3D)
Субтитры: (внешние SRT UTF-8):
#1 - Русские Полные
#2 - Украинские Полные
#3 - English Full

MediaInfo

General
Unique ID : 175186829236346153841748286416510080873 (0x83CBC18B1B5F7811A6AF0411AD795769)
Complete name : E:Home(2015)3D-halfOU(Ash61)Home(2015)3D-halfOU(Ash61).mkv
Format : Matroska
Format version : Version 2
File size : 8.84 GiB
Duration : 1h 33mn
Overall bit rate : 13.5 Mbps
Movie name : Дом / Home (2015) в 3Д
Encoded date : UTC 2015-07-05 19:24:06
Writing application : mkvmerge v5.8.0 ('No Sleep / Pillow') built on Sep 2 2012 15:37:04
Writing library : libebml v1.2.3 + libmatroska v1.3.0
Video
ID : 1
Format : AVC
Format/Info : Advanced Video Codec
Format profile : [email protected]
Format settings, CABAC : Yes
Format settings, ReFrames : 4 frames
Codec ID : V_MPEG4/ISO/AVC
Duration : 1h 33mn
Bit rate : 11.5 Mbps
Width : 1 920 pixels
Height : 1 080 pixels
Display aspect ratio : 16:9
Frame rate mode : Constant
Frame rate : 23.976 fps
Color space : YUV
Chroma subsampling : 4:2:0
Bit depth : 8 bits
Scan type : Progressive
Bits/(Pixel*Frame) : 0.231
Stream size : 7.54 GiB (85%)
Title : BDRip by Ash61
Writing library : x264 core 138 r2358 9e941d1
Encoding settings : cabac=1 / ref=4 / deblock=1:-3:-3 / analyse=0x3:0x113 / me=umh / subme=10 / psy=1 / psy_rd=1.00:0.00 / mixed_ref=1 / me_range=32 / chroma_me=1 / trellis=2 / 8x8dct=1 / cqm=0 / deadzone=21,11 / fast_pskip=1 / chroma_qp_offset=-2 / threads=12 / lookahead_threads=2 / sliced_threads=0 / nr=0 / decimate=1 / interlaced=0 / bluray_compat=0 / constrained_intra=0 / bframes=9 / b_pyramid=2 / b_adapt=2 / b_bias=0 / direct=3 / weightb=1 / open_gop=0 / weightp=2 / keyint=250 / keyint_min=23 / scenecut=40 / intra_refresh=0 / rc_lookahead=60 / rc=crf / mbtree=1 / crf=16.0 / qcomp=0.70 / qpmin=10 / qpmax=51 / qpstep=4 / vbv_maxrate=40000 / vbv_bufsize=30000 / crf_max=0.0 / nal_hrd=none / frame-packing=4 / ip_ratio=1.40 / aq=1:0.70
Language : English
Default : Yes
Forced : No
Audio #1
ID : 2
Format : AC-3
Format/Info : Audio Coding 3
Mode extension : CM (complete main)
Format settings, Endianness : Big
Codec ID : A_AC3
Duration : 1h 33mn
Bit rate mode : Constant
Bit rate : 640 Kbps
Channel(s) : 6 channels
Channel positions : Front: L C R, Side: L R, LFE
Sampling rate : 48.0 KHz
Bit depth : 16 bits
Compression mode : Lossy
Stream size : 429 MiB (5%)
Title : Дубляж - BD Eur
Language : Russian
Default : Yes
Forced : No
Audio #2
ID : 3
Format : AC-3
Format/Info : Audio Coding 3
Mode extension : CM (complete main)
Format settings, Endianness : Big
Codec ID : A_AC3
Duration : 1h 33mn
Bit rate mode : Constant
Bit rate : 448 Kbps
Channel(s) : 6 channels
Channel positions : Front: L C R, Side: L R, LFE
Sampling rate : 48.0 KHz
Bit depth : 16 bits
Compression mode : Lossy
Stream size : 301 MiB (3%)
Title : Дубляж - BD Eur
Language : Ukrainian
Default : No
Forced : No
Audio #3
ID : 4
Format : AC-3
Format/Info : Audio Coding 3
Mode extension : CM (complete main)
Format settings, Endianness : Big
Codec ID : A_AC3
Duration : 1h 33mn
Bit rate mode : Constant
Bit rate : 640 Kbps
Channel(s) : 6 channels
Channel positions : Front: L C R, Side: L R, LFE
Sampling rate : 48.0 KHz
Bit depth : 16 bits
Compression mode : Lossy
Stream size : 429 MiB (5%)
Title : Original - BD 3D
Language : English
Default : No
Forced : No

Скриншоты





Последний раз редактировалось: greensniper (2015-09-11 21:03), всего редактировалось 14 раз(а)

Создавать темы 11-Сен-2015 19:03

[Профиль]  [ЛС] 

greensniper ®

Стаж: 2 года 5 месяцев

Сообщений: 16

Симпатии: 10

Скачал отсюда: http://rutracker.in/viewtopic.php?f=304&t=166423
Кто скачает, пожалуйста встаньте на раздачу, у меня ADSL и скорость отдачи 60-80 кбит/сек

Создавать темы 11-Сен-2015 19:41

[Профиль]  [ЛС] 

victor0778

Стаж: 6 лет 8 месяцев

Сообщений: 1670

Симпатии: 142

greensniper,
постер и скрины залейте сюда http://img.tas-ix.net/
о субтитрах нет инфы

Создавать темы 11-Сен-2015 19:47

[Профиль]  [ЛС] 

greensniper ®

Стаж: 2 года 5 месяцев

Сообщений: 16

Симпатии: 10

950612greensniper,
постер и скрины залейте сюда http://img.tas-ix.net/
о субтитрах нет инфы
вроде готово, только картинок с http://img.tas-ix.net/ не видно....

Создавать темы 11-Сен-2015 20:12

[Профиль]  [ЛС] 

SnuPPyy

Стаж: 5 лет 7 месяцев

Сообщений: 16

Дайте скорости пожалуйста, неделю качаю уже

Создавать темы 17-Фев-2016 10:32

[Профиль]  [ЛС] 
Показать сообщения:    
Ответить на тему

Текущее время: 24-Окт 16:29

Часовой пояс: UTC + 5



Вы не можете начинать темы
Вы не можете отвечать на сообщения
Вы не можете редактировать свои сообщения
Вы не можете удалять свои сообщения
Вы не можете голосовать в опросах
Вы не можете прикреплять файлы к сообщениям
Вы не можете скачивать файлы