Ультраамериканцы / American Ultra (Нима Нуризаде) [2015, США, боевик, комедия, WEB-DLRip] (Dub : [iTunes])

Ответить на тему
 

mp1988 ®

Стаж: 6 лет 8 месяцев

Сообщений: 607

Симпатии: 971

Ультраамериканцы / American Ultra
Страна: США
Жанр: боевик, комедия
Год выпуска: 2015
Продолжительность: 01:27:48
Перевод: Профессиональный (дублированный) [iTunes]
Cубтитры: нет
Режиссер: Нима Нуризаде
В ролях: Джесси Айзенберг, Кристен Стюарт, Тофер Грейс, Конни Бриттон, Уолтон Гоггинс, Джон Легуизамо, Билл Пуллман, Тони Хейл, Стюарт Грир, Майкл Пападжон
Описание: А вдруг ты тоже спецагент, обладающий уникальной боевой подготовкой и сверхинтеллектом? Но просто ты забыл об этом… Как Майк Хоуэлл, лоботряс из супермаркета, который безмятежно читает комиксы и курит дурь пока славное прошлое не настигает его. И обдолбанный агент N1 становится мишенью N1.
Качество видео: WEB-DLRip
Формат видео: AVI
Видео: 1795 kb/s, 720x384
Аудио: AC3, 384 kb/s (6 ch)

MediaInfo

General
Complete name : D:\FILM\Ul3ra.5endosy.2015.D.WEB-DLRip.1400MB.avi
Format : AVI
Format/Info : Audio Video Interleave
File size : 1.46 GiB
Duration : 1h 35mn
Overall bit rate : 2 188 Kbps
Writing application : VirtualDubMod 1.5.10.3 | www.virtualdub-fr.org || (build 2550/release)
Writing library : VirtualDubMod build 2550/release
Video
ID : 0
Format : MPEG-4 Visual
Format profile : Advanced [email protected]
Format settings, BVOP : 2
Format settings, QPel : No
Format settings, GMC : No warppoints
Format settings, Matrix : Default (MPEG)
Codec ID : XVID
Codec ID/Hint : XviD
Duration : 1h 35mn
Bit rate : 1 795 Kbps
Width : 720 pixels
Height : 384 pixels
Display aspect ratio : 1.85:1
Frame rate : 24.000 fps
Color space : YUV
Chroma subsampling : 4:2:0
Bit depth : 8 bits
Scan type : Progressive
Compression mode : Lossy
Bits/(Pixel*Frame) : 0.270
Stream size : 1.20 GiB (82%)
Writing library : XviD 1.2.1 (UTC 2008-12-04)
Audio
ID : 1
Format : AC-3
Format/Info : Audio Coding 3
Mode extension : CM (complete main)
Format settings, Endianness : Big
Codec ID : 2000
Duration : 1h 35mn
Bit rate mode : Constant
Bit rate : 384 Kbps
Channel(s) : 6 channels
Channel positions : Front: L C R, Side: L R, LFE
Sampling rate : 48.0 KHz
Bit depth : 16 bits
Compression mode : Lossy
Stream size : 262 MiB (18%)
Alignment : Split accross interleaves
Interleave, duration : 42 ms (1.00 video frame)
Interleave, preload duratio : 500 ms

Скриншоты





Последний раз редактировалось: mp1988 (2015-11-20 20:27), всего редактировалось 1 раз

Создавать темы 11-Сен-2015 20:14

[Профиль]  [ЛС] 

Lolzsch

Стаж: 2 года 7 месяцев

Сообщений: 51

Симпатии: 196

Ul3ra.5endosy уахахаххах
Интересно)

Создавать темы 12-Сен-2015 17:53

[Профиль]  [ЛС] 

zhozef

Стаж: 5 лет 9 месяцев

Сообщений: 35

Симпатии: 6

Рейтинг imdb: 6,4/10

Создавать темы 14-Сен-2015 09:57

[Профиль]  [ЛС] 

timmylove

Стаж: 4 года 3 месяца

Сообщений: 113

Симпатии: 11

Хрень полная... и никакая не комедия... зря прожитые полтора часа

Создавать темы 23-Сен-2015 17:00

[Профиль]  [ЛС] 

rasulov_azim

Стаж: 5 лет 9 месяцев

Сообщений: 10

Симпатии: 3

Дайте скорость!!!

Создавать темы 24-Ноя-2016 00:12

[Профиль]  [ЛС] 
Показать сообщения:    
Ответить на тему

Текущее время: 17-Окт 21:42

Часовой пояс: UTC + 5



Вы не можете начинать темы
Вы не можете отвечать на сообщения
Вы не можете редактировать свои сообщения
Вы не можете удалять свои сообщения
Вы не можете голосовать в опросах
Вы не можете прикреплять файлы к сообщениям
Вы не можете скачивать файлы