Заражённая 2 (Инфекция: Фаза 2) / Contracted: Phase II (2015) WEB-DL 720p

Ответить на тему
 

lector_87 ®

Стаж: 3 года 10 месяцев

Сообщений: 391

Симпатии: 348

-Заражённая 2 (Инфекция: Фаза 2) / Contracted: Phase II- Год выпуска: 2015
Страна: США, BoulderLight Pictures
Жанр: Ужасы, триллер, драма
Продолжительность: 01:18:24--Перевод: Любительский одноголосый (Хихикающий доктор)
Cубтитры: нет
Оригинальная аудиодорожка: английский--Режиссер: Джош Форбс--В ролях: Мэтт Мерсер, Марианна Палка, Морган Питер Браун, Анна Лоре, Лорел Вэйл, Неджарра Таунсенд, Сюзанн Восс, Элис МакДональд, Кэролин Уильямс, Ной Дорси--Описание: Вторая часть фильма «Заражённая» расскажет зрителям, чем же закончится история с загадочным вирусом, который Саманта подцепила после ночи с незнакомцем. Теперь Райли предстоит в одиночку найти лекарство, остановить распространение вируса и, таким образом, спасти не только себя, но и, возможно, всё человечество.--Качество видео: WEB-DL 720p
Формат видео: MKV
Видео: MPEG-4 AVC, 3925 Кбит/с, 1280х530
Аудио: Русский (АС3, 2 ch, 192 Кбит/с), английский (АС3, 6 ch, 384 Кбит/с)--

MediaInfo

General
Unique ID                                : 213340050206887554311369454581741931521 (0xA07FCC920482ECFB8C6E8924391A4C01)
Complete name                            : D:\Video\Contracted.Phase.II.2015.720p.WEB-DL.mkv
Format                                   : Matroska
Format version                           : Version 4 / Version 2
File size                                : 2.51 GiB
Duration                                 : 1h 18mn
Overall bit rate                         : 4 592 Kbps
Movie name                               : Contracted.Phase.II.2015.720p.WEB-DL
Encoded date                             : UTC 2015-09-05 04:52:10
Writing application                      : mkvmerge v6.9.1 ('Blue Panther') 64bit built on Apr 18 2014 18:23:38
Writing library                          : libebml v1.3.0 + libmatroska v1.4.1
Video
ID                                       : 1
Format                                   : AVC
Format/Info                              : Advanced Video Codec
Format profile                           : [email protected]
Format settings, CABAC                   : No
Format settings, ReFrames                : 2 frames
Codec ID                                 : V_MPEG4/ISO/AVC
Duration                                 : 1h 18mn
Bit rate                                 : 3 925 Kbps
Width                                    : 1 280 pixels
Height                                   : 530 pixels
Display aspect ratio                     : 2.40:1
Frame rate mode                          : Constant
Frame rate                               : 23.976 fps
Color space                              : YUV
Chroma subsampling                       : 4:2:0
Bit depth                                : 8 bits
Scan type                                : Progressive
Bits/(Pixel*Frame)                       : 0.241
Stream size                              : 2.15 GiB (85%)
Title                                    : Contracted.Phase.II.2015
Language                                 : English
Default                                  : Yes
Forced                                   : No
Color primaries                          : BT.709
Transfer characteristics                 : BT.709
Matrix coefficients                      : BT.709
Audio #1
ID                                       : 2
Format                                   : AC-3
Format/Info                              : Audio Coding 3
Mode extension                           : CM (complete main)
Format settings, Endianness              : Big
Codec ID                                 : A_AC3
Duration                                 : 1h 18mn
Bit rate mode                            : Constant
Bit rate                                 : 192 Kbps
Channel count                            : 2 channels
Channel positions                        : Front: L R
Sampling rate                            : 44.1 KHz
Bit depth                                : 16 bits
Compression mode                         : Lossy
Stream size                              : 108 MiB (4%)
Title                                    : Xixidoktor
Language                                 : Russian
Default                                  : Yes
Forced                                   : No
Audio #2
ID                                       : 3
Format                                   : AC-3
Format/Info                              : Audio Coding 3
Mode extension                           : CM (complete main)
Format settings, Endianness              : Big
Codec ID                                 : A_AC3
Duration                                 : 1h 18mn
Bit rate mode                            : Constant
Bit rate                                 : 384 Kbps
Channel count                            : 6 channels
Channel positions                        : Front: L C R, Side: L R, LFE
Sampling rate                            : 48.0 KHz
Bit depth                                : 16 bits
Compression mode                         : Lossy
Stream size                              : 215 MiB (8%)
Title                                    : original
Language                                 : English
Default                                  : No
Forced                                   : No
Text
ID                                       : 4
Format                                   : UTF-8
Codec ID                                 : S_TEXT/UTF8
Codec ID/Info                            : UTF-8 Plain Text
Language                                 : English
Default                                  : No
Forced                                   : No
Menu
00:00:00.000                             : en:1
00:11:11.000                             : en:2
00:19:44.000                             : en:3
00:31:55.000                             : en:4
00:38:54.000                             : en:5
00:49:24.000                             : en:6
00:59:18.000                             : en:7
01:11:30.000                             : en:8

Скриншоты



Создавать темы 12-Сен-2015 00:13

[Профиль]  [ЛС] 

Saken

Стаж: 2 года 8 месяцев

Сообщений: 20

Симпатии: 38

Опередил на 15 минут

Создавать темы 12-Сен-2015 00:28

[Профиль]  [ЛС] 

tasikss

Стаж: 6 лет 11 месяцев

Сообщений: 139

Симпатии: 10

Saken, тогда помогите раздавать ! пожалуйста

_________________
Подпись отключена за нарушение правил форума

Создавать темы 12-Сен-2015 00:58

[Профиль]  [ЛС] 
Показать сообщения:    
Ответить на тему

Текущее время: 15-Дек 15:25

Часовой пояс: UTC + 5



Вы не можете начинать темы
Вы не можете отвечать на сообщения
Вы не можете редактировать свои сообщения
Вы не можете удалять свои сообщения
Вы не можете голосовать в опросах
Вы не можете прикреплять файлы к сообщениям
Вы не можете скачивать файлы