Миньоны | Minions (Кайл Балда, Пьер Соффин) [2015., мультфильм, комедия, семейный, HDTVRip][Чистый звук]

Ответить на тему
 

akmal-19-66 ®

Стаж: 2 года 5 месяцев

Сообщений: 23

Симпатии: 120

Миньоны / Minions

Год выпуска:2015
Страна:США
Жанр:мультфильм, комедия, семейный
Продолжительность:01:26:18
Перевод:Дублированный [Чистый звук]-Режиссёр:Кайл Балда, Пьер Коффан-В ролях:Сандра Буллок, Джон Хэмм, Майкл Китон, Эллисон Дженни, Стив Куган, Дженнифер Сондерс, Джеффри Раш, Стив Карелл, Пьер Коффан,
Кэти Миксон-Описание:Миньоны живут на планете гораздо дольше нас. У них одна навязчивая идея — служить самой Гадкой личности из имеющихся в наличии. Динозавры, фараоны, Дракула, Наполеон — все они оказались недолговечны. И тогда миньоны рванули в Нью-Йорк. Их ждут деньги, власть, роковая суперзлодейка Скарлет Оверкилл и, конечно же, вкуснейшая «банана»! Во всяком случае, так им кажется.-Качество:HDTVRip
Формат:AVI
Видео: Xvid 720x384 23.98fps 1950kbps
Аудио:Dolby AC3 48000Hz stereo 192kbps

Media Info

General
Complete name : C:\2\Torrent upload\Миньоны\Миньоны.Minions.2015.D.HDTVRip.avi
Format : AVI
Format/Info : Audio Video Interleave
File size : 1.45 GiB
Duration : 1h 26mn
Overall bit rate : 2 413 Kbps
Movie name : M1n1oNy.2015.D.HDTVRip.ELEKTRI4KA.uniongang.tv
Director : Carl Gaus
Writing application : VirtualDubMod 1.5.10.3 | www.virtualdub-fr.org || (build 2550/release)
Copyright : UNIONGANG&RUSTORRENTS
Video
ID : 0
Format : MPEG-4 Visual
Format profile : Advanced [email protected]
Format settings, BVOP : Yes
Format settings, QPel : No
Format settings, GMC : No warppoints
Format settings, Matrix : Default (MPEG)
Codec ID : XVID
Codec ID/Hint : XviD
Duration : 1h 26mn
Bit rate : 1 951 Kbps
Width : 720 pixels
Height : 384 pixels
Display aspect ratio : 1.875
Frame rate : 23.976 fps
Color space : YUV
Chroma subsampling : 4:2:0
Bit depth : 8 bits
Scan type : Progressive
Bits/(Pixel*Frame) : 0.294
Stream size : 1.18 GiB (81%)
Writing library : XviD 1.2.1 (UTC 2008-12-04)
Audio #1
ID : 1
Format : AC-3
Format/Info : Audio Coding 3
Mode extension : CM (complete main)
Codec ID : 2000
Duration : 1h 26mn
Bit rate mode : Constant
Bit rate : 192 Kbps
Channel(s) : 2 channels
Channel positions : Front: L R
Sampling rate : 48.0 KHz
Stream size : 119 MiB (8%)
Alignment : Split accross interleaves
Interleave, duration : 42 ms (1.00 video frame)
Interleave, preload duration : 500 ms
Audio #2
ID : 2
Format : AC-3
Format/Info : Audio Coding 3
Mode extension : CM (complete main)
Codec ID : 2000
Duration : 1h 26mn
Bit rate mode : Constant
Bit rate : 256 Kbps
Channel(s) : 2 channels
Channel positions : Front: L R
Sampling rate : 48.0 KHz
Stream size : 158 MiB (11%)
Alignment : Split accross interleaves
Interleave, duration : 42 ms (1.00 video frame)
Interleave, preload duration : 500 ms

Скриншоты




Создавать темы 12-Сен-2015 14:05

[Профиль]  [ЛС] 

Alegro

Стаж: 7 лет 3 месяца

Сообщений: 72

Симпатии: 1

Стюарт на Супер Мега Укулеле сыграл песню Ван Халена, который вышел лет через 10...

Создавать темы 20-Сен-2015 19:31

[Профиль]  [ЛС] 

GanGSteeR

Стаж: 5 лет 6 месяцев

Сообщений: 92

Симпатии: 1

дайте скорость

Создавать темы 29-Окт-2015 07:27

[Профиль]  [ЛС] 
Показать сообщения:    
Ответить на тему

Текущее время: 22-Окт 04:23

Часовой пояс: UTC + 5



Вы не можете начинать темы
Вы не можете отвечать на сообщения
Вы не можете редактировать свои сообщения
Вы не можете удалять свои сообщения
Вы не можете голосовать в опросах
Вы не можете прикреплять файлы к сообщениям
Вы не можете скачивать файлы