Повседневная жизнь с девушками монстрами / Monster Musume no Iru Nichijou [12 из 12] [Без хардсаба] [RUS] [комедия, этти, романтика,HDTVRip] [720] [AniDub]

Страницы :  1, 2  След.

Ответить на тему
 

maksimus_1712 ®

Стаж: 4 года

Сообщений: 122

Симпатии: 68

Повседневная жизнь с девушками монстрами
Monster Musume no Iru Nichijou
- Год: 2015
Жанр: комедия, этти, романтика
Страна: Япония
Продолжительность: 24 мин
Дата выпуска: c 08.07.2015
Автор оригинала / Сценарист: Окаядо
Озвучивание: Cuba77, Nika Lenina, Гамлетка Цезаревна
Перевод: FooBoo
Тайминг и работа со звуком: Felix-Режиссер: Ёсихара Тацуя
Студия: -Описание: Три года назад мир узнал о существовании человекоподобных существ. Попытки правительств мира скрыть их существование от всеобщего внимания провалились. Дабы обеспечить успешное внедрение этих самых видом в человеческом обществе, была одобрена программа "Культурного обмена между видами". С тех пор эта программа обрела огромный успех, помогла многим видам интегрироваться в человеческое общество.
World Art-Качество: HDTVRip
Формат видео: MP4
Видео: x264,1280x720,1979kbps,23.976fps
Аудио: ААС, 48.0 kHz, ~128 Kbps, 2ch

MediaInfo

General
Complete name                  : Monster Musume no Iru Nichijou - 01 [720p].mp4
Format                         : MPEG-4
Format profile                 : Base Media
Codec ID                       : isom
File size                      : 367 MiB
Duration                       : 23mn 59s
Overall bit rate mode          : Variable
Overall bit rate               : 2 138 Kbps
Writing application            : Lavf56.25.101
Video
ID                             : 1
Format                         : AVC
Format/Info                    : Advanced Video Codec
Format profile                 : [email protected]
Format settings, CABAC         : Yes
Format settings, ReFrames      : 4 frames
Codec ID                       : avc1
Codec ID/Info                  : Advanced Video Coding
Duration                       : 23mn 59s
Bit rate                       : 1 980 Kbps
Width                          : 1 280 pixels
Height                         : 720 pixels
Display aspect ratio           : 16:9
Frame rate mode                : Constant
Frame rate                     : 23.976 fps
Color space                    : YUV
Chroma subsampling             : 4:2:0
Bit depth                      : 8 bits
Scan type                      : Progressive
Bits/(Pixel*Frame)             : 0.090
Stream size                    : 340 MiB (93%)
Writing library                : x264 core 142
Encoding settings              : cabac=1 / ref=3 / deblock=1:0:0 / analyse=0x3:0x113 / me=hex / subme=7 / psy=1 / psy_rd=1.00:0.00 / mixed_ref=1 / me_range=16 / chroma_me=1 / trellis=1 / 8x8dct=1 / cqm=0 / deadzone=21,11 / fast_pskip=1 / chroma_qp_offset=-2 / threads=4 / lookahead_threads=1 / sliced_threads=0 / nr=0 / decimate=1 / interlaced=0 / bluray_compat=0 / constrained_intra=0 / bframes=3 / b_pyramid=2 / b_adapt=1 / b_bias=0 / direct=1 / weightb=1 / open_gop=0 / weightp=2 / keyint=24 / keyint_min=2 / scenecut=40 / intra_refresh=0 / rc_lookahead=24 / rc=2pass / mbtree=1 / bitrate=1980 / ratetol=1.0 / qcomp=0.60 / qpmin=0 / qpmax=69 / qpstep=4 / cplxblur=20.0 / qblur=0.5 / ip_ratio=1.40 / aq=1:1.00
Audio
ID                             : 2
Format                         : AAC
Format/Info                    : Advanced Audio Codec
Format profile                 : LC
Codec ID                       : 40
Duration                       : 23mn 59s
Duration_LastFrame             : -17ms
Bit rate mode                  : Variable
Bit rate                       : 152 Kbps
Maximum bit rate               : 192 Kbps
Channel(s)                     : 2 channels
Channel positions              : Front: L R
Sampling rate                  : 44.1 KHz
Compression mode               : Lossy
Delay relative to video        : 83ms
Stream size                    : 26.1 MiB (7%)

Скриншоты





Последний раз редактировалось: maksimus_1712 (2015-10-01 13:03), всего редактировалось 6 раз(а)

Создавать темы 12-Сен-2015 17:24

[Профиль]  [ЛС] 

SoluSoull

Стаж: 2 года 5 месяцев

Сообщений: 379

Симпатии: 452

не понимаю, нафига переименовывать файлы ? тем самым лишая другим возможности помочь вам в раздаче...

Создавать темы 14-Сен-2015 20:59

[Профиль]  [ЛС] 

daniellya

Стаж: 5 лет 4 месяца

Сообщений: 338

Симпатии: 29

>[RUS(int),JAP]
> Аудио: ААС, 48.0 kHz, ~128 Kbps, 2ch тоесть это рудаб.
Опять дезинформаторы атакуэ?

Создавать темы 14-Сен-2015 23:16

[Профиль]  [ЛС] 

Hurracan

Стаж: 1 год 10 месяцев

Сообщений: 79

Симпатии: 80

раздавайте

Создавать темы 27-Сен-2015 21:53

[Профиль]  [ЛС] 

Hurracan

Стаж: 1 год 10 месяцев

Сообщений: 79

Симпатии: 80

пожалуйста раздавайте 99.3% скачано

Создавать темы 28-Сен-2015 16:42

[Профиль]  [ЛС] 

Hurracan

Стаж: 1 год 10 месяцев

Сообщений: 79

Симпатии: 80

когда добавят последнию серию?

Создавать темы 29-Сен-2015 14:19

[Профиль]  [ЛС] 

maksimus_1712 ®

Стаж: 4 года

Сообщений: 122

Симпатии: 68

как выйдет на AniDub

Создавать темы 29-Сен-2015 17:05

[Профиль]  [ЛС] 

Топик был перенесен из форума Аниме онгоинги в форум HD, HDTVRip
SNIL

Создавать темы 01-Окт-2015 13:03

 

Hurracan

Стаж: 1 год 10 месяцев

Сообщений: 79

Симпатии: 80

Наконец то вышла последняя серия.
Спасибо что добавили.

Создавать темы 02-Окт-2015 20:02

[Профиль]  [ЛС] 

SoluSoull

Стаж: 2 года 5 месяцев

Сообщений: 379

Симпатии: 452

какие странные чувства уменя когда смотрю это аниме
ЗЫ: опенинг классный, но лишь первые 10 секунд

Создавать темы 04-Окт-2015 20:33

[Профиль]  [ЛС] 

Xatiman

Стаж: 1 год 8 месяцев

Сообщений: 38

Симпатии: 2

так где раздача?

Создавать темы 14-Дек-2015 23:19

[Профиль]  [ЛС] 

Xatiman

Стаж: 1 год 8 месяцев

Сообщений: 38

Симпатии: 2

скачалось-раздаю!

Создавать темы 18-Дек-2015 16:56

[Профиль]  [ЛС] 

Green_blood

Стаж: 6 лет 8 месяцев

Сообщений: 21

Встаньте на раздачу, плиз дайте скачать

Создавать темы 06-Фев-2016 19:12

[Профиль]  [ЛС] 

Xatiman

Стаж: 1 год 8 месяцев

Сообщений: 38

Симпатии: 2

Уважаемые!
Сиды пришли!
Хватить жать на кнопку "позвать скачавших"!!
Кто хочет скачать данное аниме, качайте на здоровье!

Создавать темы 06-Фев-2016 22:48

[Профиль]  [ЛС] 

Green_blood

Стаж: 6 лет 8 месяцев

Сообщений: 21

Встаньте на раздачу

Создавать темы 11-Фев-2016 11:28

[Профиль]  [ЛС] 
Показать сообщения:    
Ответить на тему

Текущее время: 18-Авг 14:01

Часовой пояс: UTC + 5



Вы не можете начинать темы
Вы не можете отвечать на сообщения
Вы не можете редактировать свои сообщения
Вы не можете удалять свои сообщения
Вы не можете голосовать в опросах
Вы не можете прикреплять файлы к сообщениям
Вы не можете скачивать файлы