Овечка Долли была злая и рано умерла (Алексей Пиманов) [2015, фантастика, комедия, приключения, WEB-DLRip]

Ответить на тему
 

Banderas ®

Стаж: 2 года 9 месяцев

Сообщений: 4

Симпатии: 7

-Овечка Долли была злая и рано умерла- -Жанр: фантастика, комедия, приключения
Год выпуска: 2015
Продолжительность: 01:56:37-Режиссёр: Алексей Пиманов
В ролях: Данила Шевченко, Юлия Савичева, Виктор Сухоруков, Роман Полянский, Виктория Маслова, Борис Щербаков, Анна Шерлинг, Юлия Пожидаева, Антон Феоктистов, Ирина Ильинская-Описание: Главный герой - современный молодой человек Никита, студент МИФИ, в результате научного эксперимента попадает в прошлое, где ему предстоит встретить не только своих молодых родителей, но найти новых друзей и обрести настоящую любовь в лице студентки Маши. Эта встреча заставляет его по-другому посмотреть на свою жизнь. Однако Никита вдруг понимает, что начинает стремительно стареть и спастись он может только если вернется обратно - в свое время. Но сделать это оказалось не так просто....-- --Качество видео:WEB-DLRip
Формат видео: AVI
Видео: XviD, 1582 kb/s, 720x304
Аудио: AC3, 2/0 (L,R) ch, ~192 kbps--

MediaInfo

Общее
Полное имя : D:\Видео\torrent\new\Ove4ka.DoLli.2015.WEB-DLRip.avi
Формат : AVI
Формат/Информация : Audio Video Interleave
Размер файла : 1,45 Гбайт
Продолжительность : 1 ч. 56 м.
Общий поток : 1784 Кбит/сек
Программа кодирования : VirtualDubMod 1.5.10.2 (build 2540/release)
Библиотека кодирования : VirtualDubMod build 2540/release
Видео
Идентификатор : 0
Формат : MPEG-4 Visual
Профиль формата : Advanced [email protected]
Параметр BVOP формата : 2
Параметр QPel формата : Нет
Параметр GMC формата : Без точки перехода
Параметр матрицы формата : Default (MPEG)
Идентификатор кодека : XVID
Идентификатор кодека/Подсказка : XviD
Продолжительность : 1 ч. 56 м.
Битрейт : 1582 Кбит/сек
Ширина : 720 пикселей
Высота : 304 пикселя
Соотношение сторон : 2,35:1
Частота кадров : 25,000 кадров/сек
Цветовое пространство : YUV
Субдискретизация насыщенности : 4:2:0
Битовая глубина : 8 бит
Тип развёртки : Прогрессивная
Метод сжатия : С потерями
Бит/(Пиксели*Кадры) : 0.289
Размер потока : 1,29 Гбайт (89%)
Библиотека кодирования : XviD 1.2.1 (UTC 2008-12-04)
Аудио
Идентификатор : 1
Формат : AC-3
Формат/Информация : Audio Coding 3
Расширение режима : CM (complete main)
Параметр Endianness формата : Big
Идентификатор кодека : 2000
Продолжительность : 1 ч. 56 м.
Вид битрейта : Постоянный
Битрейт : 192 Кбит/сек
Каналы : 2 канала
Расположение каналов : Front: L R
Частота : 48,0 КГц
Метод сжатия : С потерями
Размер потока : 160 Мбайт (11%)
Выравнивание : Разделение по промежуткам
Продолжительность промежутка : 40 мс. (1,00 видеокадр)
Время предзагрузки промежутка : 500 мс.
-

Скриншоты

-


Последний раз редактировалось: Banderas (2015-09-13 19:59), всего редактировалось 1 раз

Создавать темы 13-Сен-2015 13:41

[Профиль]  [ЛС] 

victor0778

Стаж: 6 лет 10 месяцев

Сообщений: 1670

Симпатии: 142

Banderas,
Ну допустим, что с таким звуком не лицензия просто перевод не нужен

Создавать темы 13-Сен-2015 19:59

[Профиль]  [ЛС] 

Banderas ®

Стаж: 2 года 9 месяцев

Сообщений: 4

Симпатии: 7

почему отдачи нет ?

Создавать темы 13-Сен-2015 21:09

[Профиль]  [ЛС] 

SkoroXod

Стаж: 2 года 3 месяца

Сообщений: 99

Симпатии: 78

Отличная кинокартина! Хороший сюжет, с подобранными киноактёрами, игрой, и музыкой. Увлекательная приключенческо-фантастическая сюжетная линия, не заставит зрителя скучать. А тонкий юмор повысит настроение. Содержание картины интригует с самого начала, до логического завершения с хэппи эндом. А личная любовная драма главного героя заставляет переживать вместе с ним. Просто добрый и хороший фильм. Побольше бы таких. Также в кинокартине прослеживается глубокий философский подтекст - о проблеме отцов и детей. Советую для семейного просмотра.
Оценка 7 баллов из 10.

Создавать темы 10-Окт-2015 23:29

[Профиль]  [ЛС] 

nizom_19

Стаж: 4 года 7 месяцев

Сообщений: 60

Симпатии: 17

Фильм ваше супер предлагаю всем

Создавать темы 12-Окт-2015 16:32

[Профиль]  [ЛС] 
Показать сообщения:    
Ответить на тему

Текущее время: 18-Дек 04:35

Часовой пояс: UTC + 5



Вы не можете начинать темы
Вы не можете отвечать на сообщения
Вы не можете редактировать свои сообщения
Вы не можете удалять свои сообщения
Вы не можете голосовать в опросах
Вы не можете прикреплять файлы к сообщениям
Вы не можете скачивать файлы