Век Адалин / The Age of Adaline (Ли Толанд Кригер/Lee Toland Krieger) [2015, США, Канада, драма, мелодрама, фэнтези, HDRip] (Dub : Line)

Ответить на тему
 

UZM ®

Стаж: 5 лет 5 месяцев

Сообщений: 169

Симпатии: 189

Век Адалин / The Age of Adaline
Страна: США, Канада
Жанр: драма, мелодрама, фэнтези
Год выпуска: 2015
Продолжительность: 01:52:43
Перевод: Профессиональный (дублированный) Доп. инфо о переводе Line
Cубтитры: нет
Режиссер: Ли Толанд Кригер/Lee Toland Krieger
В ролях: Блейк Лайвли, Михил Хаушман, Кэти Бейкер, Харрисон Форд, Эллен Бёрстин, Аманда Крю, Линда Бойд, Хью Росс,
Ричард Хэрмон, Фульвио Чечере
Описание: По сюжету главная героиня родилась вместе с XX веком и живет на свете уже сто лет, но при этом не стареет. Несмотря на свою долгую жизнь, Адалин так и не смогла найти любимого человека. Однако наконец-то она встречает мужчину, ради которого сможет снова стать смертной и состариться вместе с ним.
Доп. информация: Натали Портман отказалась от главной роли в этом фильме.
Энтони Инграбер получил роль в фильме благодаря своему внешнему сходству с молодым Харрисоном Фордом.
В 2010 году планировалось, что главную роль в фильме сыграет Кэтрин Хайгл, а роль Флемминг достанется Анджеле Лэнсбери.
Качество видео: HDRip
Формат видео: AVI
Видео: Xvid 720x304 24fps 1648kbps
Аудио: Dolby AC3 48,0Hz stereo 192kbps

MediaInfo

General
Complete name : F:\Кино\The.Age.of.Adaline.2015.avi
Format : AVI
Format/Info : Audio Video Interleave
File size : 1.46 GiB
Duration : 1h 52mn
Overall bit rate : 1 850 Kbps
Movie name : The.Age.of.Adaline.2015.WEB-DLRip.ELEKTRI4KA.uniongang.tv
Writing application : VirtualDubMod 1.5.10.3 | www.virtualdub-fr.org || (build 2550/release)
Writing library : VirtualDubMod build 2550/release
Copyright : UNIONGANG&RUSTORRENTS
Video
ID : 0
Format : MPEG-4 Visual
Format profile : Advanced [email protected]
Format settings, BVOP : 2
Format settings, QPel : No
Format settings, GMC : No warppoints
Format settings, Matrix : Default (MPEG)
Muxing mode : Packed bitstream
Codec ID : XVID
Codec ID/Hint : XviD
Duration : 1h 52mn
Bit rate : 1 649 Kbps
Width : 720 pixels
Height : 304 pixels
Display aspect ratio : 2.35:1
Frame rate : 24.000 fps
Color space : YUV
Chroma subsampling : 4:2:0
Bit depth : 8 bits
Scan type : Progressive
Compression mode : Lossy
Bits/(Pixel*Frame) : 0.314
Stream size : 1.30 GiB (89%)
Writing library : XviD 73
Audio
ID : 1
Format : AC-3
Format/Info : Audio Coding 3
Mode extension : CM (complete main)
Format settings, Endianness : Big
Codec ID : 2000
Duration : 1h 52mn
Bit rate mode : Constant
Bit rate : 192 Kbps
Channel(s) : 2 channels
Channel positions : Front: L R
Sampling rate : 48.0 KHz
Compression mode : Lossy
Stream size : 155 MiB (10%)
Alignment : Split accross interleaves
Interleave, duration : 42 ms (1.00 video frame)
Interleave, preload duration : 500 ms

Скриншот c названием фильма

Скриншоты

,
,

Создавать темы 13-Сен-2015 19:29

[Профиль]  [ЛС] 

Zikirillo

Стаж: 7 лет 8 месяцев

Сообщений: 21

хороший кино

Создавать темы 14-Сен-2015 02:09

[Профиль]  [ЛС] 
Показать сообщения:    
Ответить на тему

Текущее время: 24-Окт 12:29

Часовой пояс: UTC + 5



Вы не можете начинать темы
Вы не можете отвечать на сообщения
Вы не можете редактировать свои сообщения
Вы не можете удалять свои сообщения
Вы не можете голосовать в опросах
Вы не можете прикреплять файлы к сообщениям
Вы не можете скачивать файлы