Транс / Trance (Дэнни Бойл / Danny Boyle) [2013, Великобритания, Франция, триллер, драма, криминал, детектив, BDRip 1080p] DUB Line

Ответить на тему
 

Zab ®

Стаж: 6 лет 6 месяцев

Сообщений: 476

Симпатии: 424

Транс | Trance«В подсознании. Вне закона»- Страна: Великобритания, Франция
Жанр: триллер, драма, криминал, детектив
Год выпуска: 2013
Продолжительность: 01:41:19
Перевод: Профессиональный (дублированный) [LINE]
Русские субтитры: есть
Оригинальная аудиодорожка: английский-Режиссер: Дэнни Бойл / Danny Boyle
В ролях: Джеймс МакЭвой, Венсан Кассель, Розарио Доусон, Дэнни Сапани, Мэттью Кросс, Вахаб Ахмед Шейх, Марк Полтимор, Таппенс Мидлтон, Саймон Кунц, Майкл Шэйффер.-Описание: Аукционер Саймон не в силах противостоять искушению - вступает в сговор с бандой грабителей и организует похищение уникального лота стоимостью в миллионы долларов. Однако налет оканчивается не совсем так, как он предполагал вначале. Аукционера оглушают ударом тупого предмета по голове, в результате которого он теряет какие бы то ни было воспоминания о том, что произошло.
Разумеется, он также забывает, куда спрятал ценную картину. Пытками добиться ответа от ничего не понимающего Саймона не удается. Тогда главарь банды решает нанять психотерапевта, чтобы она смогла выудить ценную информацию из поврежденного мозга заложника. По мере того, как девушка пробивается сквозь нейронную защиту, ставки растут как на дрожжах. Границы между страстью и жестокостью, реальностью и вымыслом тускнеют и вовсе готовы испариться. В конечном итоге становится не ясно - кто же у кого в заложниках?- -Тип релиза: BDRip 1080p
Контейнер: MKV
Видео: AVC, 1920x800, 10.7 Mbps, 23.976fps
Аудио #1: AC-3, 448 Kbps, 6 channels, 48.0 KHz, rus, Дублированный [LINE]
Аудио #2: AC-3, 640 Kbps, 6 channels, 48.0 KHz, eng, Оригинал DD 5.1 640 kbps
Субтитры: eng

MI

General
Unique ID                      : 214345967526443273557925770506220373385 (0xA141881F92FAB9A9999648507F008589)
Complete name                  : D:\[Movies]\Trance.2013.AVC.BDRip.(1080p).mkv
Format                         : Matroska
Format version                 : Version 2
File size                      : 8.51 GiB
Duration                       : 1h 41mn
Overall bit rate               : 12.0 Mbps
Encoded date                   : UTC 2013-07-12 21:30:06
Writing application            : mkvmerge v6.3.0 ('You can't stop me!') built on Jun 28 2013 20:09:41
Writing library                : libebml v1.3.0 + libmatroska v1.4.0
Video
ID                             : 1
Format                         : AVC
Format/Info                    : Advanced Video Codec
Format profile                 : [email protected]
Format settings, CABAC         : Yes
Format settings, ReFrames      : 5 frames
Codec ID                       : V_MPEG4/ISO/AVC
Duration                       : 1h 41mn
Bit rate                       : 10.7 Mbps
Width                          : 1 920 pixels
Height                         : 800 pixels
Display aspect ratio           : 2.40:1
Frame rate mode                : Constant
Frame rate                     : 23.976 fps
Color space                    : YUV
Chroma subsampling             : 4:2:0
Bit depth                      : 8 bits
Scan type                      : Progressive
Bits/(Pixel*Frame)             : 0.290
Stream size                    : 7.57 GiB (89%)
Title                          : Trance.2013.AVC.BDRip.(1080p).HDWing
Writing library                : x264 core 132 r2323+704+51 d571b1c tMod [[email protected]:2:0 X86_64]
Encoding settings              : cabac=1 / ref=5 / deblock=1:-3:-3 / analyse=0x3:0x113 / me=umh / subme=11 / psy=1 / fade_compensate=0.00 / psy_rd=1.01:0.00 / mixed_ref=1 / me_range=32 / chroma_me=1 / trellis=2 / 8x8dct=1 / cqm=0 / deadzone=21,11 / fast_pskip=0 / chroma_qp_offset=-2 / threads=36 / lookahead_threads=6 / sliced_threads=0 / nr=0 / decimate=0 / interlaced=0 / bluray_compat=0 / constrained_intra=0 / fgo=0 / bframes=8 / b_pyramid=2 / b_adapt=2 / b_bias=0 / direct=3 / weightb=1 / open_gop=0 / weightp=2 / keyint=240 / keyint_min=24 / scenecut=40 / intra_refresh=0 / rc=crf / mbtree=0 / crf=17.8000 / qcomp=0.70 / qpmin=0 / qpmax=69 / qpstep=4 / ip_ratio=1.20 / pb_ratio=1.20 / aq=4:0.80 / aq-sensitivity=10.00 / aq-factor=1.00:1.00:1.00 / aq2=0 / aq3=0
Language                       : English
Default                        : Yes
Forced                         : No
Audio #1
ID                             : 2
Format                         : AC-3
Format/Info                    : Audio Coding 3
Mode extension                 : CM (complete main)
Format settings, Endianness    : Big
Codec ID                       : A_AC3
Duration                       : 1h 41mn
Bit rate mode                  : Constant
Bit rate                       : 448 Kbps
Channel(s)                     : 6 channels
Channel positions              : Front: L C R, Side: L R, LFE
Sampling rate                  : 48.0 KHz
Bit depth                      : 16 bits
Compression mode               : Lossy
Stream size                    : 325 MiB (4%)
Title                          : Дублированный [LINE]
Language                       : Russian
Default                        : Yes
Forced                         : No
Audio #2
ID                             : 3
Format                         : AC-3
Format/Info                    : Audio Coding 3
Mode extension                 : CM (complete main)
Format settings, Endianness    : Big
Codec ID                       : A_AC3
Duration                       : 1h 41mn
Bit rate mode                  : Constant
Bit rate                       : 640 Kbps
Channel(s)                     : 6 channels
Channel positions              : Front: L C R, Side: L R, LFE
Sampling rate                  : 48.0 KHz
Bit depth                      : 16 bits
Compression mode               : Lossy
Stream size                    : 464 MiB (5%)
Title                          : Оригинал DD 5.1 640 kbps
Language                       : English
Default                        : No
Forced                         : No
Text
ID                             : 4
Format                         : UTF-8
Codec ID                       : S_TEXT/UTF8
Codec ID/Info                  : UTF-8 Plain Text
Language                       : English
Default                        : Yes
Forced                         : No

Скриншоты




Создавать темы 15-Сен-2015 08:25

[Профиль]  [ЛС] 
Показать сообщения:    
Ответить на тему

Текущее время: 18-Ноя 00:42

Часовой пояс: UTC + 5



Вы не можете начинать темы
Вы не можете отвечать на сообщения
Вы не можете редактировать свои сообщения
Вы не можете удалять свои сообщения
Вы не можете голосовать в опросах
Вы не можете прикреплять файлы к сообщениям
Вы не можете скачивать файлы