Просто о сложном: Психосоматика / Anime de Wakaru Shinryounaika (Огура Хирофуми) [TV] [Без хардсаба] [01-20 из 20] [RUS] [2015г., комедия HDTV-Rip] [720p]

Ответить на тему
 

SoluSoull ®

Стаж: 2 года 8 месяцев

Сообщений: 379

Симпатии: 452

Anime de Wakaru Shinryounaika
Просто о сложном: Психосоматика-Производство: Япония
Год выпуска: 2015
Жанр: комедия
Тип: ONA (20 эп.), 6 мин.-Перевод:
Озвучка от Гамлетка Цезаревна & 9й Неизвестный-Режиссёр: Огура Хирофуми
Автор оригинала: Юки Ю
Студия: SHIN-IE-Описание: В этом аниме будут своеобразно рассмотрены психосоматические проблемы...-Качество: HDTVrip \ Формат: Mkv
Тип видео: без хардсаба
Видео: AVC, 1280х720(16/9), 3 072 Kbps, 23.976fps, 8 bits
Аудио: AC-3, 2 ch, 448кбит/с, 48000Hz-

Скриншоты

MI

General
Unique ID : 192176327029978146906101055029573176478 (0x9093D074D8C04B0F9F5DEB7A0DA1CC9E)
Complete name : E:\Downloads\Anime de Wakaru Shinryounaika\[AniDub]_Anime_de_Wakaru_Shinryounaika_[01]_[1280x720_x264]_[Hamletka_Cezarevna_9th_Unknown].mkv
Format : Matroska
Format version : Version 2
File size : 137 MiB
Duration : 5mn 26s
Overall bit rate : 3 513 Kbps
Encoded date : UTC 2015-02-15 00:30:45
Writing application : mkvmerge v7.0.0 ('Where We Going') 32bit built on Jun 9 2014 15:08:34
Writing library : libebml v1.3.0 + libmatroska v1.4.1
DURATION : 00:05:26.272000000
NUMBER_OF_FRAMES : 10196
NUMBER_OF_BYTES : 18271232
_STATISTICS_WRITING_APP : mkvmerge v7.0.0 ('Where We Going') 32bit built on Jun 9 2014 15:08:34
_STATISTICS_WRITING_DATE_UT : 2015-02-15 00:30:45
_STATISTICS_TAGS : BPS DURATION NUMBER_OF_FRAMES NUMBER_OF_BYTES
Video
ID : 1
Format : AVC
Format/Info : Advanced Video Codec
Format profile : [email protected]
Format settings, CABAC : Yes
Format settings, ReFrames : 4 frames
Codec ID : V_MPEG4/ISO/AVC
Duration : 5mn 26s
Bit rate : 3 072 Kbps
Width : 1 920 pixels
Height : 1 080 pixels
Display aspect ratio : 16:9
Frame rate mode : Constant
Frame rate : 23.976 fps
Color space : YUV
Chroma subsampling : 4:2:0
Bit depth : 8 bits
Scan type : Progressive
Bits/(Pixel*Frame) : 0.062
Stream size : 116 MiB (85%)
Writing library : x264 core 120 r2120 0c7dab9
Encoding settings : cabac=1 / ref=4 / deblock=1:1:1 / analyse=0x3:0x113 / me=umh / subme=8 / psy=1 / psy_rd=0.40:0.00 / mixed_ref=1 / me_range=16 / chroma_me=1 / trellis=1 / 8x8dct=1 / cqm=0 / deadzone=21,11 / fast_pskip=1 / chroma_qp_offset=-2 / threads=8 / sliced_threads=0 / nr=0 / decimate=1 / interlaced=0 / bluray_compat=0 / constrained_intra=0 / bframes=3 / b_pyramid=2 / b_adapt=2 / b_bias=0 / direct=3 / weightb=1 / open_gop=0 / weightp=2 / keyint=250 / keyint_min=23 / scenecut=40 / intra_refresh=0 / rc_lookahead=50 / rc=2pass / mbtree=1 / bitrate=3072 / ratetol=1.0 / qcomp=0.60 / qpmin=0 / qpmax=69 / qpstep=4 / cplxblur=20.0 / qblur=0.5 / vbv_maxrate=6144 / vbv_bufsize=15360 / nal_hrd=none / ip_ratio=1.40 / aq=1:0.60
Default : Yes
Forced : No
Audio
ID : 2
Format : AC-3
Format/Info : Audio Coding 3
Mode extension : CM (complete main)
Format settings, Endianness : Big
Codec ID : A_AC3
Duration : 5mn 26s
Bit rate mode : Constant
Bit rate : 448 Kbps
Channel(s) : 2 channels
Channel positions : Front: L R
Sampling rate : 48.0 KHz
Bit depth : 16 bits
Compression mode : Lossy
Stream size : 17.4 MiB (13%)
Default : Yes
Forced : No

Создавать темы 15-Сен-2015 10:39

[Профиль]  [ЛС] 

SoluSoull ®

Стаж: 2 года 8 месяцев

Сообщений: 379

Симпатии: 452

всё

Создавать темы 21-Окт-2015 10:22

[Профиль]  [ЛС] 

Топик был перенесен из форума Аниме онгоинги в форум HD, HDTVRip
SNIL

Создавать темы 21-Окт-2015 11:05

 
Показать сообщения:    
Ответить на тему

Текущее время: 12-Дек 20:45

Часовой пояс: UTC + 5



Вы не можете начинать темы
Вы не можете отвечать на сообщения
Вы не можете редактировать свои сообщения
Вы не можете удалять свои сообщения
Вы не можете голосовать в опросах
Вы не можете прикреплять файлы к сообщениям
Вы не можете скачивать файлы