Бандитос / Gangsta (Мурасэ Сюко) [TV] [Без хардсаба] [01-12 из 12] [RUS] [2015г., приключения, боевик HDTV-Rip] [720p]

Ответить на тему
 

SoluSoull ®

Стаж: 2 года 5 месяцев

Сообщений: 379

Симпатии: 452

Gangsta
Бандитос-Производство: Япония
Год выпуска: 2015
Жанр: приключения, боевик
Тип: ТВ (12 эп.), 25 мин.-Перевод:
Озвучка от JAM & Trina_D-Режиссёр: Мурасэ Сюко
Автор оригинала: Косукэ
Студия: Manglobe Inc.-Описание: У вас течет кран? Отломалась ножка стула? Завелись тараканы? В предприимчивой Японии в таких случаях звонят в специальную контору, "мастерам на все руки", которые все починят, со всем помогут, все проблемы решат. Называются такие мастера абстрактным словом "Бенрия-сан". Вот только где-то есть районы, где "бытовые" проблемы имеют широкий криминальный масштаб, а вредители крупные и злобные двуногие, от которых "дрожат" даже иные тюрьмы. Вот на таких улицах и переулках вырастают свои "Бенрия-сан", которые так же без вопросов приведут любой объект хозяствования в состояние "нет проблем". У вас все еще проблемы? Не раздумывая звоните Варрику и Николасу: приятная секретарша всегда ответит на звонок - и специалист немедленно отправится вам на помощь, прихватив кольт, катану и прочий рабочий инструмент.-Качество: HDTVrip \ Формат: Mp4
Тип видео: без хардсаба
Видео: AVC, 1280х720(16/9), 1 559 Kbps, 23.976fps, 8 bits
Аудио: AAC, 2 ch, 128кбит/с, 48000Hz-

Скриншоты


MI

General
Complete name : E:\Downloads\Gangsta\[AniDub]_Gangsta_[01]_[720p_x264_Aac]_[JAM_Trina_D].mp4
Format : MPEG-4
Format profile : Base Media
Codec ID : isom
File size : 290 MiB
Duration : 23mn 59s
Overall bit rate mode : Variable
Overall bit rate : 1 691 Kbps
Encoded date : UTC 2015-07-03 21:07:31
Tagged date : UTC 2015-07-03 21:07:31
Writing application : Yamb 2.1.0.0 [http://yamb.unite-video.com]
Video
ID : 1
Format : AVC
Format/Info : Advanced Video Codec
Format profile : [email protected]
Format settings, CABAC : Yes
Format settings, ReFrames : 4 frames
Codec ID : avc1
Codec ID/Info : Advanced Video Coding
Duration : 23mn 59s
Bit rate : 1 559 Kbps
Maximum bit rate : 16.3 Mbps
Width : 1 280 pixels
Height : 720 pixels
Display aspect ratio : 16:9
Frame rate mode : Constant
Frame rate : 23.976 fps
Color space : YUV
Chroma subsampling : 4:2:0
Bit depth : 8 bits
Scan type : Progressive
Bits/(Pixel*Frame) : 0.071
Stream size : 267 MiB (92%)
Title : 264
Writing library : x264 core 129 r2245+729M 1a52e03
Encoding settings : cabac=1 / ref=4 / deblock=1:1:-1 / analyse=0x3:0x113 / me=umh / subme=9 / psy=1 / fade_compensate=0.00 / psy_rd=1.00:0.00 / mixed_ref=1 / me_range=24 / chroma_me=1 / trellis=2 / 8x8dct=1 / cqm=0 / deadzone=21,11 / fast_pskip=1 / chroma_qp_offset=-2 / threads=8 / lookahead_threads=1 / sliced_threads=0 / nr=0 / decimate=1 / interlaced=0 / bluray_compat=0 / constrained_intra=0 / fgo=0 / bframes=9 / b_pyramid=2 / b_adapt=2 / b_bias=0 / direct=1 / weightb=1 / open_gop=0 / weightp=2 / keyint=240 / keyint_min=24 / scenecut=40 / intra_refresh=0 / rc=crf / mbtree=0 / crf=18.5 / qcomp=0.72 / qpmin=0 / qpmax=69 / qpstep=4 / ip_ratio=1.40 / pb_ratio=1.30 / aq=1:0.85
Encoded date : UTC 2015-07-01 19:40:17
Tagged date : UTC 2015-07-03 21:07:40
Color primaries : BT.709
Transfer characteristics : BT.709
Matrix coefficients : BT.709
Color range : Limited
Audio
ID : 2
Format : AAC
Format/Info : Advanced Audio Codec
Format profile : LC
Codec ID : 40
Duration : 23mn 59s
Bit rate mode : Variable
Bit rate : 128 Kbps
Maximum bit rate : 138 Kbps
Channel(s) : 2 channels
Channel positions : Front: L R
Sampling rate : 48.0 KHz
Compression mode : Lossy
Stream size : 22.0 MiB (8%)
Language : Russian
Encoded date : UTC 2015-07-03 21:07:40
Tagged date : UTC 2015-07-03 21:07:40

Отличия

другая озвучка
отсутствие яп дорожки

https://tas-ix.net/viewtopic.php?t=107970
другая озвучка
отсутствие яп дорожки

https://tas-ix.net/viewtopic.php?t=107596


Последний раз редактировалось: SoluSoull (2015-10-02 18:00), всего редактировалось 3 раз(а)

Создавать темы 15-Сен-2015 23:31

[Профиль]  [ЛС] 

SoluSoull ®

Стаж: 2 года 5 месяцев

Сообщений: 379

Симпатии: 452

10

Создавать темы 23-Сен-2015 12:28

[Профиль]  [ЛС] 

krocki

Стаж: 2 года 4 месяца

Сообщений: 57

Симпатии: 1

Ещё бы пару серий бы...

Создавать темы 02-Окт-2015 12:49

[Профиль]  [ЛС] 

SoluSoull ®

Стаж: 2 года 5 месяцев

Сообщений: 379

Симпатии: 452

всё

Создавать темы 02-Окт-2015 17:28

[Профиль]  [ЛС] 

Топик был перенесен из форума Аниме онгоинги в форум HD, HDTVRip
[email protected]

Создавать темы 02-Окт-2015 18:00

 
Показать сообщения:    
Ответить на тему

Текущее время: 18-Авг 13:59

Часовой пояс: UTC + 5



Вы не можете начинать темы
Вы не можете отвечать на сообщения
Вы не можете редактировать свои сообщения
Вы не можете удалять свои сообщения
Вы не можете голосовать в опросах
Вы не можете прикреплять файлы к сообщениям
Вы не можете скачивать файлы