Врата: Там бьются наши воины / Gate: Jieitai Kanochi nite, Kaku Tatakaeri (Кёгоку Такахико) [TV] [Без хардсаба] [01-12 из 12] [RUS] [2015г., приключения, фэнтези HDTV-Rip] [720p]

Ответить на тему
 

SoluSoull ®

Стаж: 2 года 8 месяцев

Сообщений: 379

Симпатии: 452

Gate: Jieitai Kanochi nite, Kaku Tatakaeri
Врата: Там бьются наши воины-Производство: Япония
Год выпуска: 2015
Жанр: приключения, фэнтези
Тип: ТВ (12 эп.), 25 мин.-Перевод:
Озвучка от JAM, 9ый неизвестный, Oriko, Гамлетка Цезаревна & Cuba77-Режиссёр: Кёгоку Такахико
Автор оригинала: Янай Такуми
Студия: A-1 Pictures-Описание: В один погожий день в Японии вдруг открылись Врата, откеда повалилось полчище несметное и агрессивно настроенное. Орды рас разных доселе людям известных лишь из книг да игр с киношками - драконы, эльфы, гоблины, орки и человеки с шашками наголо.
Герою этой эпичной истории, Ёджи, предстоит стать героем - миротворцем, который должен наладить контакт миров и разрулить непонятки разные.-Качество: HDTVrip \ Формат: MP4
Тип видео: без хардсаба
Видео: AVC, 1280х720(16/9), 2 433 Kbps, 23.976fps, 8 bits
Аудио: AAC, 2 ch, 192кбит/с, 48000Hz-

Скриншоты


MI

General
Complete name : E:\Downloads\Gate\[AniDub]_Gate_Jieitai_Kanochi_nite_Kaku_Tatakaeri_[01]_[720p].mp4
Format : MPEG-4
Format profile : Base Media
Codec ID : isom
File size : 451 MiB
Duration : 23mn 59s
Overall bit rate mode : Variable
Overall bit rate : 2 629 Kbps
Encoded date : UTC 2015-07-05 15:36:39
Tagged date : UTC 2015-07-05 15:36:39
Writing application : Yamb 2.1.0.0 [http://yamb.unite-video.com]
Video
ID : 1
Format : AVC
Format/Info : Advanced Video Codec
Format profile : [email protected]
Format settings, CABAC : Yes
Format settings, ReFrames : 4 frames
Codec ID : avc1
Codec ID/Info : Advanced Video Coding
Duration : 23mn 59s
Bit rate : 2 433 Kbps
Maximum bit rate : 11.5 Mbps
Width : 1 280 pixels
Height : 720 pixels
Display aspect ratio : 16:9
Frame rate mode : Constant
Frame rate : 23.976 fps
Color space : YUV
Chroma subsampling : 4:2:0
Bit depth : 8 bits
Scan type : Progressive
Bits/(Pixel*Frame) : 0.110
Stream size : 418 MiB (93%)
Writing library : x264 core 146 r2538 121396c
Encoding settings : cabac=1 / ref=3 / deblock=1:0:0 / analyse=0x1:0x111 / me=hex / subme=7 / psy=1 / psy_rd=1.00:0.00 / mixed_ref=1 / me_range=16 / chroma_me=1 / trellis=1 / 8x8dct=0 / cqm=0 / deadzone=21,11 / fast_pskip=1 / chroma_qp_offset=-2 / threads=12 / lookahead_threads=2 / sliced_threads=0 / nr=0 / decimate=1 / interlaced=0 / bluray_compat=0 / constrained_intra=0 / bframes=3 / b_pyramid=2 / b_adapt=1 / b_bias=0 / direct=1 / weightb=1 / open_gop=0 / weightp=2 / keyint=240 / keyint_min=1 / scenecut=40 / intra_refresh=0 / rc_lookahead=40 / rc=crf / mbtree=1 / crf=20.0 / qcomp=0.60 / qpmin=0 / qpmax=69 / qpstep=4 / ip_ratio=1.40 / aq=1:1.50
Encoded date : UTC 2015-07-03 16:57:39
Tagged date : UTC 2015-07-05 15:36:57
Color primaries : BT.709
Transfer characteristics : BT.709
Matrix coefficients : BT.709
Color range : Limited
Audio
ID : 2
Format : AAC
Format/Info : Advanced Audio Codec
Format profile : LC
Codec ID : 40
Duration : 23mn 59s
Bit rate mode : Variable
Bit rate : 192 Kbps
Maximum bit rate : 197 Kbps
Channel(s) : 2 channels
Channel positions : Front: L R
Sampling rate : 48.0 KHz
Compression mode : Lossy
Stream size : 32.9 MiB (7%)
Language : English
Encoded date : UTC 2015-07-05 15:36:56
Tagged date : UTC 2015-07-05 15:36:57

Отличия

другая озвучка
отсутствие яп дорожки

https://tas-ix.net/viewtopic.php?t=107671


Последний раз редактировалось: SoluSoull (2015-10-01 11:11), всего редактировалось 5 раз(а)

Создавать темы 16-Сен-2015 12:14

[Профиль]  [ЛС] 

Sarashiki

Стаж: 2 года 8 месяцев

Сообщений: 85

Симпатии: 56

классное анимешка!

Создавать темы 22-Сен-2015 23:55

[Профиль]  [ЛС] 

SoluSoull ®

Стаж: 2 года 8 месяцев

Сообщений: 379

Симпатии: 452

952483классное анимешка!
да зачётная аниме, только вот пичал, второй сезон зимой, а планировали осенью

Создавать темы 23-Сен-2015 02:41

[Профиль]  [ЛС] 

Sarashiki

Стаж: 2 года 8 месяцев

Сообщений: 85

Симпатии: 56

я думаю они правильно сделали на первый сезон ушло где то 29 глав манги, а щас имеется 48 глав, как раз на зимний сезон можно будет сделать 2 ой сезон

Создавать темы 23-Сен-2015 05:55

[Профиль]  [ЛС] 

SoluSoull ®

Стаж: 2 года 8 месяцев

Сообщений: 379

Симпатии: 452

еслиб они ничего не вырезали, всё бы уних получилось к осени
ЗЫ: 11

Создавать темы 23-Сен-2015 12:31

[Профиль]  [ЛС] 

daniellya

Стаж: 5 лет 8 месяцев

Сообщений: 338

Симпатии: 29

Студия А1 не может в экшон, тем более такое гуро как Врата, персонажи различных аниме сериалов все как один на лицо, у них одна повседневность хороша выходит.

Создавать темы 23-Сен-2015 14:04

[Профиль]  [ЛС] 

SoluSoull ®

Стаж: 2 года 8 месяцев

Сообщений: 379

Симпатии: 452

всё

Создавать темы 01-Окт-2015 10:55

[Профиль]  [ЛС] 

Топик был перенесен из форума Аниме онгоинги в форум HD, HDTVRip
[email protected]

Создавать темы 01-Окт-2015 11:12

 

krocki

Стаж: 2 года 7 месяцев

Сообщений: 57

Симпатии: 1

На анидабе вроде ещё продолжение как бы должно быть.

Создавать темы 01-Окт-2015 18:27

[Профиль]  [ЛС] 

SoluSoull ®

Стаж: 2 года 8 месяцев

Сообщений: 379

Симпатии: 452

953584На анидабе вроде ещё продолжение как бы должно быть.
зимой будет прода

Создавать темы 01-Окт-2015 18:41

[Профиль]  [ЛС] 

krocki

Стаж: 2 года 7 месяцев

Сообщений: 57

Симпатии: 1

Уже 13 серия есть на Анидабе.

Создавать темы 12-Янв-2016 23:43

[Профиль]  [ЛС] 
Показать сообщения:    
Ответить на тему

Текущее время: 11-Дек 20:13

Часовой пояс: UTC + 5



Вы не можете начинать темы
Вы не можете отвечать на сообщения
Вы не можете редактировать свои сообщения
Вы не можете удалять свои сообщения
Вы не можете голосовать в опросах
Вы не можете прикреплять файлы к сообщениям
Вы не можете скачивать файлы