На самом деле я... / Jitsu wa Watashi wa... (Ямамото Ясутака) [TV] [Без хардсаба] [01-13 из 13] [RUS] [2015г., комедия, романтика HDTV-Rip] [720p]

Страницы :  1, 2  След.

Ответить на тему
 

SoluSoull ®

Стаж: 2 года 7 месяцев

Сообщений: 379

Симпатии: 452

Jitsu wa Watashi wa...
На самом деле я...-Производство: Япония
Год выпуска: 2015
Жанр: комедия, романтика
Тип: ТВ (13 эп.), 25 мин.-Перевод:
Озвучка от JAM & Trina_D-Режиссёр: Ямамото Ясутака
Автор оригинала: Масуда Эйдзи
Студия: TMS-Описание: Асахи Куроминэ дожил до 16 лет, но так и остался наивным японским юношей, неспособным врать и хранить тайны. На втором году старшей школы после очередного перемешивания учеников, парень воспарил душой в седьмое небо – ведь он оказался в одном классе с обожаемой Ёко Сирагами. Вот только при попытке признания девушка обернулась наполовину вампиром, с милыми такими зубками, и этот секрет Асахи надо сберечь любой ценой – иначе любимая исчезнет из школы и его жизни!
Трудно, конечно, было выбрать в «заговорщики» более неподходящего кандидата, но тут Куроминэ помогла сама судьба. Как вы уже догадались, герои учатся в непростой школе, где хватает персонажей куда экзотичнее, чем милая и безобидная Ёко. Пострадать, конечно, бедному Асахи придется по полной программе – ведь до парня не доходит, что он хранит секрет Полишинеля, и вокруг, вообще-то, «все свои», включая пришельцев, оборотней, падших ангелов и адских демонов!-Качество: HDTVrip \ Формат: MP4
Тип видео: без хардсаба
Видео: AVC, 1280х720(16/9), 1 353 Kbps, 23.976fps, 8 bits
Аудио: AAC, 2 ch, 128кбит/с, 48000Hz-

Скриншоты


MI

General
Complete name : E:\Downloads\jitsu wa watashi wa\[AniDub]_Jitsu-wa_Watashi_wa_[01]_[720p_x264_Aac]_[JAM_Trina_D].mp4
Format : MPEG-4
Format profile : Base Media
Codec ID : isom
File size : 257 MiB
Duration : 24mn 9s
Overall bit rate mode : Variable
Overall bit rate : 1 485 Kbps
Encoded date : UTC 2015-07-07 18:59:59
Tagged date : UTC 2015-07-07 18:59:59
Writing application : Yamb 2.1.0.0 [http://yamb.unite-video.com]
Video
ID : 1
Format : AVC
Format/Info : Advanced Video Codec
Format profile : [email protected]
Format settings, CABAC : Yes
Format settings, ReFrames : 4 frames
Codec ID : avc1
Codec ID/Info : Advanced Video Coding
Duration : 24mn 9s
Bit rate : 1 353 Kbps
Maximum bit rate : 9 637 Kbps
Width : 1 280 pixels
Height : 720 pixels
Display aspect ratio : 16:9
Frame rate mode : Constant
Frame rate : 23.976 fps
Color space : YUV
Chroma subsampling : 4:2:0
Bit depth : 8 bits
Scan type : Progressive
Bits/(Pixel*Frame) : 0.061
Stream size : 234 MiB (91%)
Title : 264
Writing library : x264 core 129 r2245+729M 1a52e03
Encoding settings : cabac=1 / ref=4 / deblock=1:1:-1 / analyse=0x3:0x113 / me=umh / subme=9 / psy=1 / fade_compensate=0.00 / psy_rd=1.00:0.00 / mixed_ref=1 / me_range=24 / chroma_me=1 / trellis=2 / 8x8dct=1 / cqm=0 / deadzone=21,11 / fast_pskip=1 / chroma_qp_offset=-2 / threads=8 / lookahead_threads=1 / sliced_threads=0 / nr=0 / decimate=1 / interlaced=0 / bluray_compat=0 / constrained_intra=0 / fgo=0 / bframes=9 / b_pyramid=2 / b_adapt=2 / b_bias=0 / direct=1 / weightb=1 / open_gop=0 / weightp=2 / keyint=240 / keyint_min=24 / scenecut=40 / intra_refresh=0 / rc=crf / mbtree=0 / crf=18.5 / qcomp=0.72 / qpmin=0 / qpmax=69 / qpstep=4 / ip_ratio=1.40 / pb_ratio=1.30 / aq=1:0.85
Encoded date : UTC 2015-07-07 01:32:51
Tagged date : UTC 2015-07-07 19:00:01
Color primaries : BT.709
Transfer characteristics : BT.709
Matrix coefficients : BT.709
Color range : Limited
Audio
ID : 2
Format : AAC
Format/Info : Advanced Audio Codec
Format profile : LC
Codec ID : 40
Duration : 24mn 9s
Bit rate mode : Variable
Bit rate : 128 Kbps
Maximum bit rate : 138 Kbps
Channel(s) : 2 channels
Channel positions : Front: L R
Sampling rate : 48.0 KHz
Compression mode : Lossy
Stream size : 22.1 MiB (9%)
Language : Russian
Encoded date : UTC 2015-07-07 19:00:00
Tagged date : UTC 2015-07-07 19:00:01


Последний раз редактировалось: SoluSoull (2015-10-20 08:56), всего редактировалось 3 раз(а)

Создавать темы 16-Сен-2015 12:49

[Профиль]  [ЛС] 

Hurracan

Стаж: 2 года

Сообщений: 79

Симпатии: 80

когда добавят остальные серии вроде уже закончилось аниме?

Создавать темы 30-Сен-2015 15:25

[Профиль]  [ЛС] 

krocki

Стаж: 2 года 6 месяцев

Сообщений: 57

Симпатии: 1

Автор...добавь ещё остальные серии!

Комментарий от [email protected]


Как он их добавить, если их еще не озвучили ?!

Создавать темы 07-Окт-2015 21:21

[Профиль]  [ЛС] 

krocki

Стаж: 2 года 6 месяцев

Сообщений: 57

Симпатии: 1

АAAAA тут другая озвучка!...не обратил внимания.

Создавать темы 08-Окт-2015 01:59

[Профиль]  [ЛС] 

SNIL

Стаж: 5 лет 9 месяцев

Сообщений: 2624

Симпатии: 341

Ну наконец то дозвучили)

Создавать темы 19-Окт-2015 08:25

[Профиль]  [ЛС] 

Hurracan

Стаж: 2 года

Сообщений: 79

Симпатии: 80

Все уже озвучили до конца??

Создавать темы 19-Окт-2015 12:12

[Профиль]  [ЛС] 

SNIL

Стаж: 5 лет 9 месяцев

Сообщений: 2624

Симпатии: 341

Hurracan, Да!

Создавать темы 19-Окт-2015 13:03

[Профиль]  [ЛС] 

Hurracan

Стаж: 2 года

Сообщений: 79

Симпатии: 80

теперь надеюсь добавять остальные серии?

Комментарий от SNIL


Добавит, добавит!)

Создавать темы 19-Окт-2015 13:30

[Профиль]  [ЛС] 

Hurracan

Стаж: 2 года

Сообщений: 79

Симпатии: 80

Ждем))

Создавать темы 19-Окт-2015 15:39

[Профиль]  [ЛС] 

SoluSoull ®

Стаж: 2 года 7 месяцев

Сообщений: 379

Симпатии: 452

сорри, меня просто два дня не было дома, завтра уже с утра, будут все серии

Создавать темы 19-Окт-2015 19:46

[Профиль]  [ЛС] 

Hurracan

Стаж: 2 года

Сообщений: 79

Симпатии: 80

Окей спасибо))

Создавать темы 19-Окт-2015 20:01

[Профиль]  [ЛС] 

krocki

Стаж: 2 года 6 месяцев

Сообщений: 57

Симпатии: 1

SoluSoull, Рассчитываем на тебя!
Может кто нибудь зальёт ещё и это: Новый завет владыки тьмы, моей сестры ТВ-2

Создавать темы 19-Окт-2015 21:59

[Профиль]  [ЛС] 

SNIL

Стаж: 5 лет 9 месяцев

Сообщений: 2624

Симпатии: 341

krocki, ну так https://tas-ix.net/viewtopic.php?t=109734

Создавать темы 19-Окт-2015 22:11

[Профиль]  [ЛС] 

krocki

Стаж: 2 года 6 месяцев

Сообщений: 57

Симпатии: 1

SNIL, Видел...просто хотелось от анидаба озвучку... а то ТВ-1 смотрел я от анидаба.

Создавать темы 19-Окт-2015 22:37

[Профиль]  [ЛС] 

SoluSoull ®

Стаж: 2 года 7 месяцев

Сообщений: 379

Симпатии: 452

955688SNIL, Видел...просто хотелось от анидаба озвучку... а то ТВ-1 смотрел я от анидаба.
НЕТ УЖ, ТОЛЬКО БД, (OLNY BD) с цензурой я ничего не буду смотреть, кроме хентая(тут уж ничего не поделать)

Создавать темы 19-Окт-2015 22:39

[Профиль]  [ЛС] 
Показать сообщения:    
Ответить на тему

Текущее время: 19-Окт 11:59

Часовой пояс: UTC + 5



Вы не можете начинать темы
Вы не можете отвечать на сообщения
Вы не можете редактировать свои сообщения
Вы не можете удалять свои сообщения
Вы не можете голосовать в опросах
Вы не можете прикреплять файлы к сообщениям
Вы не можете скачивать файлы