Шопо-коп / Герой супермаркета / Paul Blart: Mall Cop (Стив Карр / Steve Carr) [2009, USA, Комедия, ] [Blu Ray Mix by CTPAX] (Dub) (Sub RU/EN) + Original Eng audio)

Ответить на тему
 

Страх ®

Стаж: 3 года 11 месяцев

Сообщений: 1131

Симпатии: 448

Шопо-коп / Герой супермаркета / Paul Blart: Mall Cop / Blu Ray Mix by CTPAX- -Страна: USA
Жанр: Комедия
Год выпуска: 2009
Продолжительность: 01:31:03-Перевод: Лицензия
Cубтитры: русские/английские
Оригинальная аудиодорожка: английский-Режиссер: Стив Карр / Steve Carr-В ролях: Кевин Джеймс, Кейр О`Доннелл, Джейма Мейс, Рэйни Родригез, Ширли Найт, Стефен Раннациси, Питер Герети, Бобби Каннавале, Адам Феррара, Ямал Миксон-Описание: Торговый центр захватывает банда воришек, и охраннику приходится побороть свой слишком мягкий характер для того, чтобы справиться с ситуацией.- -Качество видео: BDRipmix
Формат видео: MKV-Видео: 1 778 Kbps, Xvid, 720x384, 23.976fps
Аудио: Русская Dolby AC3 48000Hz 6ch 448kbps
Аудио 2: Английская Dolby AC3 48000Hz 6ch 448kbps
Формат субтитров: softsub (SRT)
Как переключать Субтитры и Аудио канал Правая кнопка на окне плеера, и дорожка аудио, дорожка субтитров

MediaInfo

General
Unique ID : 182273205411410673917575605741430590609 (0x89208ADD1816851FABA7030FB2794C91)
Complete name : D:\Tracker\Movie Files\Mal Cop 720 BDmix.mkv
Format : Matroska
Format version : Version 4 / Version 2
File size : 1.74 GiB
Duration : 1h 31mn
Overall bit rate : 2 728 Kbps
Encoded date : UTC 2015-09-16 08:48:39
Writing application : mkvmerge v8.3.0 ('Over the Horizon') 64bit
Writing library : libebml v1.3.1 + libmatroska v1.4.2
DURATION : 01:26:37.976000000
NUMBER_OF_FRAMES : 960
NUMBER_OF_BYTES : 35578
_STATISTICS_WRITING_APP : mkvmerge v8.3.0 ('Over the Horizon') 64bit
_STATISTICS_WRITING_DATE_UTC : 2015-09-16 08:48:39
_STATISTICS_TAGS : BPS DURATION NUMBER_OF_FRAMES NUMBER_OF_BYTES
Video
ID : 2
Format : MPEG-4 Visual
Format profile : Advanced [email protected]
Format settings, BVOP : 1
Format settings, QPel : No
Format settings, GMC : No warppoints
Format settings, Matrix : Default (MPEG)
Codec ID : V_MS/VFW/FOURCC / XVID
Codec ID/Hint : XviD
Duration : 1h 31mn
Bit rate : 1 778 Kbps
Width : 720 pixels
Height : 384 pixels
Display aspect ratio : 1.85:1
Frame rate mode : Constant
Frame rate : 23.976 fps
Color space : YUV
Chroma subsampling : 4:2:0
Bit depth : 8 bits
Scan type : Progressive
Compression mode : Lossy
Bits/(Pixel*Frame) : 0.268
Stream size : 1.13 GiB (65%)
Title : Original Video chanel
Writing library : XviD 1.2.1 (UTC 2008-12-04)
Language : English
Default : Yes
Forced : No
Audio #1
ID : 1
Format : AC-3
Format/Info : Audio Coding 3
Mode extension : CM (complete main)
Format settings, Endianness : Big
Codec ID : A_AC3
Duration : 1h 31mn
Bit rate mode : Constant
Bit rate : 448 Kbps
Channel(s) : 6 channels
Channel positions : Front: L C R, Side: L R, LFE
Sampling rate : 48.0 KHz
Compression mode : Lossy
Stream size : 292 MiB (16%)
Title : Английская звуковая дорожка
Language : English
Default : Yes
Forced : No
Audio #2
ID : 3
Format : AC-3
Format/Info : Audio Coding 3
Mode extension : CM (complete main)
Format settings, Endianness : Big
Codec ID : A_AC3
Duration : 1h 31mn
Bit rate mode : Constant
Bit rate : 448 Kbps
Channel(s) : 6 channels
Channel positions : Front: L C R, Side: L R, LFE
Sampling rate : 48.0 KHz
Compression mode : Lossy
Stream size : 292 MiB (16%)
Title : Русская звуковая дорожка
Language : Russian
Default : No
Forced : No
Text #1
ID : 4
Format : UTF-8
Codec ID : S_TEXT/UTF8
Codec ID/Info : UTF-8 Plain Text
Title : Русские суббтитры
Language : Russian
Default : Yes
Forced : No
Text #2
ID : 5
Format : UTF-8
Codec ID : S_TEXT/UTF8
Codec ID/Info : UTF-8 Plain Text
Title : Английские субтитры
Language : English
Default : No
Forced : No

Скриншоты

[





Последний раз редактировалось: Страх (2015-09-16 16:40), всего редактировалось 2 раз(а)

Создавать темы 16-Сен-2015 13:04

[Профиль]  [ЛС] 
Показать сообщения:    
Ответить на тему

Текущее время: 24-Сен 04:47

Часовой пояс: UTC + 5



Вы не можете начинать темы
Вы не можете отвечать на сообщения
Вы не можете редактировать свои сообщения
Вы не можете удалять свои сообщения
Вы не можете голосовать в опросах
Вы не можете прикреплять файлы к сообщениям
Вы не можете скачивать файлы