Дорога в Голливуд / The D Train (Эндрю Моугел, Джеррад Пол) [2015, Великобритания, США, комедия, HDRip] (Лицензия)

Ответить на тему
 

ruhal ®

Стаж: 2 года 8 месяцев

Сообщений: 1181

Симпатии: 1836

- - -Дорога в Голливуд / The D Train-Страна: Великобритания, США
Жанр: комедия
Год выпуска: 2015
Продолжительность: 01:41:10-Перевод:Профессиональный (многоголосный)Лицензия
Cубтитры: нет
Режиссер: Эндрю Моугел, Джеррад Пол-В ролях: Джек Блэк, Джеймс Марсден, Кэтрин Хан, Джеффри Тэмбор,
Расселл Познер, Генри Жебровский, Кайл Борнхаймер, Майк Уайт, Коррина Лайонс, Донна ДюПлантье-Описание: Герои этой истории — бывшие одноклассники, решившие устроить встречу выпускников.
Один из них, в школе занимавшийся организацией мероприятий,
решает сделать двадцатилетний юбилей выпуска самым запоминающимся в истории и стремится изо всех сил
привезти на него самого популярного парня в школе, а ныне — актера-неудачника,
снимающегося главным образом в рекламе, да и то не в самой лучшей.-Качество видео: HDRip
Формат видео: AVI
Видео: Xvid 720x304 23.976fps 1732kbps
Аудио: Dolby AC3 48000Hz stereo 192kbps
-

MediaInfo

General
Complete name : D:\Films\D0P0ga.v.G0LLyB00d.2015.P.HDRip.1400Mb.avi
Format : AVI
Format/Info : Audio Video Interleave
File size : 1.37 GiB
Duration : 1h 41mn
Overall bit rate : 1 934 Kbps
Writing application : VirtualDubMod 1.5.10.2 (build 2540/release)
Writing library : VirtualDubMod build 2540/release
Video
ID : 0
Format : MPEG-4 Visual
Format profile : Advanced [email protected]
Format settings, BVOP : Yes
Format settings, QPel : No
Format settings, GMC : No warppoints
Format settings, Matrix : Default (MPEG)
Codec ID : XVID
Codec ID/Hint : XviD
Duration : 1h 41mn
Bit rate : 1 733 Kbps
Width : 720 pixels
Height : 304 pixels
Display aspect ratio : 2.35:1
Frame rate : 23.976 fps
Color space : YUV
Chroma subsampling : 4:2:0
Bit depth : 8 bits
Scan type : Progressive
Compression mode : Lossy
Bits/(Pixel*Frame) : 0.330
Stream size : 1.22 GiB (90%)
Writing library : XviD 1.2.1 (UTC 2008-12-04)
Audio
ID : 1
Format : AC-3
Format/Info : Audio Coding 3
Mode extension : CM (complete main)
Format settings, Endianness : Big
Codec ID : 2000
Duration : 1h 41mn
Bit rate mode : Constant
Bit rate : 192 Kbps
Channel(s) : 2 channels
Channel positions : Front: L R
Sampling rate : 48.0 KHz
Bit depth : 16 bits
Compression mode : Lossy
Stream size : 139 MiB (10%)
Alignment : Split accross interleaves
Interleave, duration : 42 ms (1.00 video frame)
Interleave, preload duration : 500 ms

Скриншоты





Последний раз редактировалось: ruhal (2015-09-16 19:16), всего редактировалось 2 раз(а)

Создавать темы 16-Сен-2015 19:09

[Профиль]  [ЛС] 

victor0778

Стаж: 6 лет 10 месяцев

Сообщений: 1670

Симпатии: 142

951450Перевод: Профессиональный (дублированный) Лицензия
не существует такого только Профессиональный (многоголосный) и скриншоты залейте, а не постер

Создавать темы 16-Сен-2015 19:12

[Профиль]  [ЛС] 

ruhal ®

Стаж: 2 года 8 месяцев

Сообщений: 1181

Симпатии: 1836

victor0778,все исправил,проверяй

Создавать темы 16-Сен-2015 19:19

[Профиль]  [ЛС] 

zhozef

Стаж: 5 лет 11 месяцев

Сообщений: 35

Симпатии: 6

imdb 5.2

Создавать темы 17-Сен-2015 06:57

[Профиль]  [ЛС] 

beck8788

Стаж: 7 лет 7 месяцев

Сообщений: 88

Симпатии: 1

951501imdb 5.2
 

Создавать темы 17-Сен-2015 09:18

[Профиль]  [ЛС] 
Показать сообщения:    
Ответить на тему

Текущее время: 17-Дек 09:29

Часовой пояс: UTC + 5



Вы не можете начинать темы
Вы не можете отвечать на сообщения
Вы не можете редактировать свои сообщения
Вы не можете удалять свои сообщения
Вы не можете голосовать в опросах
Вы не можете прикреплять файлы к сообщениям
Вы не можете скачивать файлы