Нью-Йоркские истории / New York Stories (Мартин Скорсезе / Martin Scorsese, Фрэнсис Форд Коппола / Francis Ford Coppola, Вуди Аллен / Woody Allen) [1989, США, драма, мелодрама, DVDRip] (MVO) (Original Eng)

Ответить на тему
 

ladysco ®

Стаж: 5 лет 2 месяца

Сообщений: 40

Симпатии: 56

Нью-Йоркские истории / New York Stories
Страна: США
Жанр: драма, мелодрама
Год выпуска: 1989
Продолжительность: 2:04:16
Перевод: Профессиональный (многоголосый закадровый)
Оригинальная аудиодорожка: английский
Режиссер: Мартин Скорсезе / Martin Scorsese, Фрэнсис Форд Коппола / Francis Ford Coppola, Вуди Аллен / Woody Allen
В ролях: Ник Нолти, Розанна Аркетт, Миа Фэрроу, Питер Габриел, Дебора Хэрри, Хезер МакКомб, Талия Шайр, Джанкарло Джаннини, Дон Новелло, Крис Эллиотт, Кароль Буке, Вуди Аллен
Описание: Нью-Йорк... Статуя Свободы, ущелья улиц между утесами небоскребов, сутолока Манхэттэна и огни Бродвея... Авеню и дома этого невероятного города, Большого Яблока, хранят тысячи историй. И три самые удивительные из них вам сегодня расскажут лучшие режиссеры Америки - Мартин Скорсезе, Фрэнсис Форд Коппола и Вуди Аллен.
Качество видео: DVDRip
Формат видео: AVI
Видео: DivX, 704x528, 23.976 fps, 1999 kbps, 0.22 bit/pixel
Аудио RUS: 48 kHz, AC3, 2 ch, 192.00 kbps
Аудио ENG: 48 kHz, AC3, 2 ch, 192.00 kbps

Уроки жизни / Life Lessons

Режиссер: Мартин Скорсезе
Продолжительность: 00:45:14
В ролях: Ник Нолти, Розанна Аркетт, Грегори Старк
Описание: Преуспевающий художник не может писать, когда в его жизни нет драмы. До ближайшей выставки его работ в Нью-Йорке остались считанные недели, а новых работ всё нет. Но вот из путешествия возвращается его любовница-ассистентка — оказывается, она теперь полюбила одного из комиков, выступающих по клубам. Начинается унизительная и безнадёжная борьба художника за девушку, но вместе с ней пробуждается вдохновение. С завершением новой картины завершается и драма. На выставке художник находит себе уже новую ассистентку.

MediaInfo

Format : AVI
Format/Info : Audio Video Interleave
File size : 776 MiB
Duration : 45mn 12s
Overall bit rate : 2 398 Kbps
Writing application : VirtualDubMod 1.5.10.2 (build 2540/release)
Writing library : VirtualDubMod build 2540/release
Video
ID : 0
Format : MPEG-4 Visual
Format settings, BVOP : 1
Format settings, QPel : No
Format settings, GMC : No warppoints
Format settings, Matrix : Default (H.263)
Muxing mode : Packed bitstream
Codec ID : DX50
Codec ID/Hint : DivX 5
Duration : 45mn 12s
Bit rate : 2 000 Kbps
Width : 704 pixels
Height : 528 pixels
Display aspect ratio : 4:3
Frame rate : 23.976 fps
Color space : YUV
Chroma subsampling : 4:2:0
Bit depth : 8 bits
Scan type : Progressive
Compression mode : Lossy
Bits/(Pixel*Frame) : 0.224
Stream size : 647 MiB (83%)
Writing library : DivX 6.8.0 (UTC 2007-12-04)
Audio #1
ID : 1
Format : AC-3
Format/Info : Audio Coding 3
Mode extension : CM (complete main)
Format settings, Endianness : Big
Codec ID : 2000
Duration : 45mn 12s
Bit rate mode : Constant
Bit rate : 192 Kbps
Channel(s) : 2 channels
Channel positions : Front: L R
Sampling rate : 48.0 KHz
Bit depth : 16 bits
Compression mode : Lossy
Stream size : 62.1 MiB (8%)
Alignment : Split accross interleaves
Interleave, duration : 42 ms (1.00 video frame)
Interleave, preload duratio : 500 ms
Audio #2
ID : 2
Format : AC-3
Format/Info : Audio Coding 3
Mode extension : CM (complete main)
Format settings, Endianness : Big
Codec ID : 2000
Duration : 45mn 12s
Bit rate mode : Constant
Bit rate : 192 Kbps
Channel(s) : 2 channels
Channel positions : Front: L R
Sampling rate : 48.0 KHz
Bit depth : 16 bits
Compression mode : Lossy
Stream size : 62.1 MiB (8%)
Alignment : Split accross interleaves
Interleave, duration : 42 ms (1.00 video frame)
Interleave, preload duratio : 500 ms

Скриншоты

Кошмар мамочки (Эдипов комплекс) / Oedipus Wrecks

Режиссер: Вуди Аллен
Продолжительность: 00:44:50
В ролях: Вуди Аллен, Миа Фэрроу, Кирстен Данст
Описание: Рассказ об одной еврейской семье, в которой по всем канонам и традициям мать полностью опекает своего сына — Шелдона. Со временем эта забота перерастает в навязчивый контроль и Шелдон начинает задумываться о вероятном облегчении с исчезновением матери из его жизни. Вскоре простой поход на представление фокусника меняет жизнь Шелдона и его мечты и желания почти становятся реальностью.

MediaInfo

Format : AVI
Format/Info : Audio Video Interleave
File size : 781 MiB
Duration : 44mn 50s
Overall bit rate : 2 435 Kbps
Writing application : VirtualDubMod 1.5.10.2 (build 2540/release)
Writing library : VirtualDubMod build 2540/release
Video
ID : 0
Format : MPEG-4 Visual
Format settings, BVOP : Yes
Format settings, QPel : No
Format settings, GMC : No warppoints
Format settings, Matrix : Default (H.263)
Codec ID : DX50
Codec ID/Hint : DivX 5
Duration : 44mn 50s
Bit rate : 2 036 Kbps
Width : 704 pixels
Height : 528 pixels
Display aspect ratio : 4:3
Frame rate : 23.976 fps
Color space : YUV
Chroma subsampling : 4:2:0
Bit depth : 8 bits
Scan type : Progressive
Compression mode : Lossy
Bits/(Pixel*Frame) : 0.228
Stream size : 653 MiB (84%)
Writing library : DivX 6.8.0 (UTC 2007-12-04)
Audio #1
ID : 1
Format : AC-3
Format/Info : Audio Coding 3
Mode extension : CM (complete main)
Format settings, Endianness : Big
Codec ID : 2000
Duration : 44mn 49s
Bit rate mode : Constant
Bit rate : 192 Kbps
Channel(s) : 2 channels
Channel positions : Front: L R
Sampling rate : 48.0 KHz
Bit depth : 16 bits
Compression mode : Lossy
Delay relative to video : 25ms
Stream size : 61.5 MiB (8%)
Alignment : Split accross interleaves
Interleave, duration : 42 ms (1.00 video frame)
Interleave, preload duratio : 500 ms
Audio #2
ID : 2
Format : AC-3
Format/Info : Audio Coding 3
Mode extension : CM (complete main)
Format settings, Endianness : Big
Codec ID : 2000
Duration : 44mn 49s
Bit rate mode : Constant
Bit rate : 192 Kbps
Channel(s) : 2 channels
Channel positions : Front: L R
Sampling rate : 48.0 KHz
Bit depth : 16 bits
Compression mode : Lossy
Delay relative to video : 25ms
Stream size : 61.5 MiB (8%)
Alignment : Split accross interleaves
Interleave, duration : 42 ms (1.00 video frame)
Interleave, preload duratio : 500 ms

Скриншоты

Жизнь без Зои / Life Without Zoe

Режиссер: Фрэнсис Форд Коппола
Продолжительность: 00:34:14
В ролях: Хитер Маккомб, Джанкарло Джаннини, Талия Шайр
Описание: Зои — дочь богатых и знаменитых родителей, которые живут порознь и которых она совсем не видит, заботится о ней дворецкий. Однажды она оказывается героиней почти сказочной истории. Одна восточная принцесса, не сдержав чувств от удивительной игры отца Зои на флейте, подарила ему драгоценную серьгу, и теперь её надо уберечь от гнева мужа. В завершение всего воссоединяется и семья Зои.

MediaInfo

Format : AVI
Format/Info : Audio Video Interleave
File size : 543 MiB
Duration : 34mn 14s
Overall bit rate : 2 216 Kbps
Writing application : VirtualDubMod 1.5.10.2 (build 2540/release)
Writing library : VirtualDubMod build 2540/release
Video
ID : 0
Format : MPEG-4 Visual
Format settings, BVOP : Yes
Format settings, QPel : No
Format settings, GMC : No warppoints
Format settings, Matrix : Default (H.263)
Codec ID : DX50
Codec ID/Hint : DivX 5
Duration : 34mn 14s
Bit rate : 1 818 Kbps
Width : 704 pixels
Height : 528 pixels
Display aspect ratio : 4:3
Frame rate : 23.976 fps
Color space : YUV
Chroma subsampling : 4:2:0
Bit depth : 8 bits
Scan type : Progressive
Compression mode : Lossy
Bits/(Pixel*Frame) : 0.204
Stream size : 445 MiB (82%)
Writing library : DivX 6.8.0 (UTC 2007-12-04)
Audio #1
ID : 1
Format : AC-3
Format/Info : Audio Coding 3
Mode extension : CM (complete main)
Format settings, Endianness : Big
Codec ID : 2000
Duration : 34mn 14s
Bit rate mode : Constant
Bit rate : 192 Kbps
Channel(s) : 2 channels
Channel positions : Front: L R
Sampling rate : 48.0 KHz
Bit depth : 16 bits
Compression mode : Lossy
Delay relative to video : 14ms
Stream size : 47.0 MiB (9%)
Alignment : Split accross interleaves
Interleave, duration : 42 ms (1.00 video frame)
Interleave, preload duratio : 500 ms
Audio #2
ID : 2
Format : AC-3
Format/Info : Audio Coding 3
Mode extension : CM (complete main)
Format settings, Endianness : Big
Codec ID : 2000
Duration : 34mn 14s
Bit rate mode : Constant
Bit rate : 192 Kbps
Channel(s) : 2 channels
Channel positions : Front: L R
Sampling rate : 48.0 KHz
Bit depth : 16 bits
Compression mode : Lossy
Delay relative to video : 14ms
Stream size : 47.0 MiB (9%)
Alignment : Split accross interleaves
Interleave, duration : 42 ms (1.00 video frame)
Interleave, preload duratio : 500 ms

Скриншоты

Создавать темы 16-Сен-2015 19:12

[Профиль]  [ЛС] 
Показать сообщения:    
Ответить на тему

Текущее время: 23-Сен 12:39

Часовой пояс: UTC + 5



Вы не можете начинать темы
Вы не можете отвечать на сообщения
Вы не можете редактировать свои сообщения
Вы не можете удалять свои сообщения
Вы не можете голосовать в опросах
Вы не можете прикреплять файлы к сообщениям
Вы не можете скачивать файлы