Последняя девушка / Final Girl (Тайлер Шилдс/Tyler Shields) [2015, Канада, США, Боевик, триллер, драма, DVDRip] (VO : Хихикающий доктор)

Ответить на тему
 

UZM ®

Стаж: 5 лет 2 месяца

Сообщений: 169

Симпатии: 189

Последняя девушка / Final Girl

Страна: Канада, США
Жанр: Боевик, триллер, драма
Год выпуска: 2015
Продолжительность: 01:24:12
Перевод: Одноголосый закадровый Доп. инфо о переводе Хихикающий доктор
Cубтитры: нет
Режиссер: Тайлер Шилдс/Tyler Shields
В ролях: Эбигейл Бреслин, Уэс Бентли, Логан Хаффман, Камерон Брайт, Александр Людвиг, Рис Томпсон, Эмма Паэтц, Грэйсин Шиней, Франческа Фишер-Иствуд, Дезире Зуровски
Описание: Главную героиню, девочку-сироту, берёт на воспитание таинственный незнакомец. 12 лет он обучает её владению оружием и различным приёмам рукопашного боя. И вот наступает день её первого задания. Цель — четверо друзей, молодых и сильных парней, которые развлекаются тем, что охотятся и убивают молодых девушек.
Доп. информация:
Выпускающая компания телесериала «Уилфред» спродюсировала полнометражную картину, в которой фотограф Тайлер Шилдс придал своей оригинальной визуальной эстетике разрешение 2,35:1. Хотя съемки завершились в 2012-м году, но в прокат кинолента попала лишь во второй половине 2015-го. Несмотря на популярный жанр триллера, «Последняя девушка» не нашла дистрибьюторов, была выпущена на крайне ограниченном числе экранов.
Качество видео: DVDRip
Формат видео: AVI
Видео: Xvid 720x304 23.976fps 1905kbps
Аудио: Dolby AC3 44,1Hz stereo 192kbps (русский)
Аудио 2: Dolby AC3 48,0Hz 6ch 384kbps (английский)

MediaInfo

General
Complete name : F:\Кино\Final.Girl.2015.xixidok.HDRip.ExKinoRay.avi
Format : AVI
Format/Info : Audio Video Interleave
File size : 1.47 GiB
Duration : 1h 24mn
Overall bit rate : 2 496 Kbps
Writing application : VirtualDubMod 1.5.10.2 (build 2540/release)
Writing library : VirtualDubMod build 2540/release
Copyright : ExKinoRay
Video
ID : 0
Format : MPEG-4 Visual
Format profile : Advanced [email protected]
Format settings, BVOP : 1
Format settings, QPel : No
Format settings, GMC : No warppoints
Format settings, Matrix : Custom
Codec ID : XVID
Codec ID/Hint : XviD
Duration : 1h 24mn
Bit rate : 1 906 Kbps
Width : 720 pixels
Height : 304 pixels
Display aspect ratio : 2.35:1
Frame rate : 23.976 fps
Color space : YUV
Chroma subsampling : 4:2:0
Bit depth : 8 bits
Scan type : Progressive
Compression mode : Lossy
Bits/(Pixel*Frame) : 0.363
Stream size : 1.12 GiB (76%)
Writing library : XviD 73
Audio #1
ID : 1
Format : AC-3
Format/Info : Audio Coding 3
Mode extension : CM (complete main)
Format settings, Endianness : Big
Codec ID : 2000
Duration : 1h 24mn
Bit rate mode : Constant
Bit rate : 192 Kbps
Channel(s) : 2 channels
Channel positions : Front: L R
Sampling rate : 44.1 KHz
Compression mode : Lossy
Stream size : 116 MiB (8%)
Alignment : Split accross interleaves
Interleave, duration : 42 ms (1.00 video frame)
Interleave, preload duration : 500 ms
Title : xixidok
Audio #2
ID : 2
Format : AC-3
Format/Info : Audio Coding 3
Mode extension : CM (complete main)
Format settings, Endianness : Big
Codec ID : 2000
Duration : 1h 24mn
Bit rate mode : Constant
Bit rate : 384 Kbps
Channel(s) : 6 channels
Channel positions : Front: L C R, Side: L R, LFE
Sampling rate : 48.0 KHz
Compression mode : Lossy
Stream size : 231 MiB (15%)
Alignment : Split accross interleaves
Interleave, duration : 42 ms (1.00 video frame)
Interleave, preload duration : 500 ms

Скриншоты

,
,


Последний раз редактировалось: UZM (2015-09-17 11:16), всего редактировалось 1 раз

Создавать темы 16-Сен-2015 22:19

[Профиль]  [ЛС] 

zhozef

Стаж: 5 лет 7 месяцев

Сообщений: 35

Симпатии: 6

imdb 4.6

Создавать темы 17-Сен-2015 06:56

[Профиль]  [ЛС] 

Evropa

Стаж: 6 лет 7 месяцев

Сообщений: 174

Симпатии: 30

Знак насилия добавить надо!

Создавать темы 18-Сен-2015 04:32

[Профиль]  [ЛС] 

SNIL

Стаж: 5 лет 7 месяцев

Сообщений: 2624

Симпатии: 341

951471Цель — четверо друзей
А на постере 5ро))

Создавать темы 12-Окт-2015 11:09

[Профиль]  [ЛС] 

Valera68

Стаж: 1 год 5 месяцев

Сообщений: 12

Примитив. Неинтересно. Глупо.

Создавать темы 20-Мар-2017 07:25

[Профиль]  [ЛС] 
Показать сообщения:    
Ответить на тему

Текущее время: 17-Авг 10:53

Часовой пояс: UTC + 5



Вы не можете начинать темы
Вы не можете отвечать на сообщения
Вы не можете редактировать свои сообщения
Вы не можете удалять свои сообщения
Вы не можете голосовать в опросах
Вы не можете прикреплять файлы к сообщениям
Вы не можете скачивать файлы