Город при замке Дандэлион / Joukamachi no Dandelion (Акитая Нориаки) [TV] [Без хардсаба] [01-12 из 12] [RUS] [2015г., комедия, школа, сверхъестественное, повседневность HDTV-Rip] [720p]

Ответить на тему
 

SoluSoull ®

Стаж: 2 года 7 месяцев

Сообщений: 379

Симпатии: 452

Joukamachi no Dandelion
Город при замке Дандэлион-Производство: Япония
Год выпуска: 2015
Жанр: комедия, школа, сверхъестественное, повседневность
Тип: ТВ (12 эп.), 25 мин.-Перевод:
Озвучка от 9й Неизвестный, Гамлетка Цезаревна & Demetra-Режиссёр: Акитая Нориаки
Автор оригинала: Касуга Аюму
Студия: Production IMS-Описание: Сюжет повествует о девяти отпрысках королевской семьи обладающих различными суперсилами и находящихся под постоянным видео-наблюдением. Данные с видеокамер транслируются на всю страну, дабы жители могли выбрать кто из девяти станет следующим монархом. Сюжет концентрируется на Аканэ обладающей способностью управлять гравитацией и стремящейся как можно реже попадать в объектив камеры.
Dandelion на русский переводится как Одуванчик XD-Качество: HDTVrip \ Формат: MP4
Тип видео: без хардсаба
Видео: AVC, 1280х720(16/9), 1 923 Kbps, 23.976fps, 8 bits
Аудио: AAC, 2 ch, 192кбит/с, 48000Hz-

Скриншоты


MI

General
Complete name : E:\Downloads\Joukamachi no Dandelion\[AniDub]_Joukamachi_no_Dandelion_[01]_[720p_x264_Aac]_[MVO].mp4
Format : MPEG-4
Format profile : Base Media
Codec ID : isom
File size : 371 MiB
Duration : 24mn 29s
Overall bit rate mode : Variable
Overall bit rate : 2 119 Kbps
Encoded date : UTC 2015-07-08 04:45:25
Tagged date : UTC 2015-07-08 04:45:25
Video
ID : 1
Format : AVC
Format/Info : Advanced Video Codec
Format profile : [email protected]
Format settings, CABAC : Yes
Format settings, ReFrames : 4 frames
Codec ID : avc1
Codec ID/Info : Advanced Video Coding
Duration : 24mn 29s
Bit rate : 1 923 Kbps
Maximum bit rate : 15.2 Mbps
Width : 1 280 pixels
Height : 720 pixels
Display aspect ratio : 16:9
Frame rate mode : Constant
Frame rate : 23.976 fps
Color space : YUV
Chroma subsampling : 4:2:0
Bit depth : 8 bits
Scan type : Progressive
Bits/(Pixel*Frame) : 0.087
Stream size : 337 MiB (91%)
Title : 264
Writing library : x264 core 129 r2245+729M 1a52e03
Encoding settings : cabac=1 / ref=4 / deblock=1:1:-1 / analyse=0x3:0x113 / me=umh / subme=9 / psy=1 / fade_compensate=0.00 / psy_rd=1.00:0.00 / mixed_ref=1 / me_range=24 / chroma_me=1 / trellis=2 / 8x8dct=1 / cqm=0 / deadzone=21,11 / fast_pskip=1 / chroma_qp_offset=-2 / threads=8 / lookahead_threads=1 / sliced_threads=0 / nr=0 / decimate=1 / interlaced=0 / bluray_compat=0 / constrained_intra=0 / fgo=0 / bframes=9 / b_pyramid=2 / b_adapt=2 / b_bias=0 / direct=1 / weightb=1 / open_gop=0 / weightp=2 / keyint=240 / keyint_min=24 / scenecut=40 / intra_refresh=0 / rc=crf / mbtree=0 / crf=18.5 / qcomp=0.72 / qpmin=0 / qpmax=69 / qpstep=4 / ip_ratio=1.40 / pb_ratio=1.30 / aq=1:0.85
Encoded date : UTC 2015-07-03 03:01:21
Tagged date : UTC 2015-07-08 04:45:43
Color primaries : BT.709
Transfer characteristics : BT.709
Matrix coefficients : BT.709
Color range : Limited
Audio
ID : 2
Format : AAC
Format/Info : Advanced Audio Codec
Format profile : LC
Codec ID : 40
Duration : 24mn 29s
Bit rate mode : Variable
Bit rate : 192 Kbps
Maximum bit rate : 196 Kbps
Channel(s) : 2 channels
Channel positions : Front: L R
Sampling rate : 48.0 KHz
Compression mode : Lossy
Stream size : 33.7 MiB (9%)
Language : Russian
Encoded date : UTC 2015-07-08 04:45:43
Tagged date : UTC 2015-07-08 04:45:43


Последний раз редактировалось: SoluSoull (2015-10-01 11:11), всего редактировалось 2 раз(а)

Создавать темы 17-Сен-2015 13:09

[Профиль]  [ЛС] 

SoluSoull ®

Стаж: 2 года 7 месяцев

Сообщений: 379

Симпатии: 452

vso

Создавать темы 01-Окт-2015 10:58

[Профиль]  [ЛС] 

Топик был перенесен из форума Аниме онгоинги в форум HD, HDTVRip
[email protected]

Создавать темы 01-Окт-2015 11:11

 

SoluSoull ®

Стаж: 2 года 7 месяцев

Сообщений: 379

Симпатии: 452

Чёрт, задумка вроде хороша, вот только, почему нет никакой романтики ? в итоге разочарован данной аниме, особенно разочаровали Аканэ и Аой, глав героиня конечно милашка, вот только начала раздражать после 4-5 серии, а вот с Аой, всё куда хуже, не думал что она будет такой простушкой, ожидал от неё много чего, единственные персонажи которые мне понравились очень сильно это Шу и Канадэ, и да насчёт концовки, я думаю всё ЭТО спланировал сам Шу

Создавать темы 04-Окт-2015 11:01

[Профиль]  [ЛС] 

Sarashiki

Стаж: 2 года 7 месяцев

Сообщений: 85

Симпатии: 56

как будто что то не хватает, и концовка тоже как то он сразу королем стал...

Создавать темы 04-Окт-2015 18:34

[Профиль]  [ЛС] 

SoluSoull ®

Стаж: 2 года 7 месяцев

Сообщений: 379

Симпатии: 452

953911как будто что то не хватает, и концовка тоже как то он сразу королем стал...
вот вот вот, романтики не хватает как по мне

Создавать темы 04-Окт-2015 18:55

[Профиль]  [ЛС] 

Sarashiki

Стаж: 2 года 7 месяцев

Сообщений: 85

Симпатии: 56

да романтика бы не помешало бы

Создавать темы 04-Окт-2015 22:02

[Профиль]  [ЛС] 
Показать сообщения:    
Ответить на тему

Текущее время: 23-Окт 12:42

Часовой пояс: UTC + 5



Вы не можете начинать темы
Вы не можете отвечать на сообщения
Вы не можете редактировать свои сообщения
Вы не можете удалять свои сообщения
Вы не можете голосовать в опросах
Вы не можете прикреплять файлы к сообщениям
Вы не можете скачивать файлы