Школа строгого режима / Prison School (Мидзусима Цутому) [TV] [Без хардсаба] [01-12 из 12] [RUS] [2015г., комедия, школа, этти HDTV-Rip] [720p]

Ответить на тему
 

SoluSoull ®

Стаж: 2 года 7 месяцев

Сообщений: 379

Симпатии: 452

Prison School
Школа строгого режима-Производство: Япония
Год выпуска: 2015
Жанр: комедия, школа, этти
Тип: ТВ (12 эп.), 25 мин.-Перевод:
Озвучка от Trina_D, Гамлетка Цезаревна, Nika Lenina, 9й неизвестный & Cuba77-Режиссёр: Мидзусима Цутому
Автор оригинала: Хирамото Акира
Студия: J.C. Staff-Описание: В частной женской академии имени Хачимитсу не так давно произошли изменения - она стала смешанной. Случилось это после смены директора школы по непонятным причинам. Все девочки были в шоке и конечно же не одобряли такие нововведения. Но деваться было некуда. К счастью, сформировавшийся авторитет школы не привлёк в новом году множества мальчишек. Дело в том, что академия Хачимитсу славится своим жёстким нравом и строгими правилам. Зачастую её называют тюрьмой.
Но всё таки несколько ребят отважились и поступили. Да... всего их было пятеро, на всю школу... а девушек 1016. Можно подумать, что ребята попали в настоящий гарем, где на одного юношу приходятся 200 девушек, но не тут то было. Парни были очень застенчивыми и даже боялись столкнутся с девушкой взглядом на огромном расстоянии друг от друга. А когда у них окончательно заиграли гормоны, ребята решили на рискованную операцию под кодовым названием "Подглядывание". Как и ожидалось, они облажались, попавшись в руки подпольного учсовета, который отвечает за соблюдения нравственных правил этой академии. Теперь пошляков ждёт самое суровое наказание...-Качество: HDTVrip \ Формат: MP4
Тип видео: без хардсаба
Видео: AVC, 1280х720(16/9), 1 854 Kbps, 23.976fps, 8 bits
Аудио: AAC, 2 ch, 192кбит/с, 48000Hz-

Скриншоты


MI

General
Complete name : E:\Downloads\Prison School\[AniDub]_Prison_School_[01]_[720p].mp4
Format : MPEG-4
Format profile : Base Media
Codec ID : isom
File size : 367 MiB
Duration : 24mn 59s
Overall bit rate mode : Variable
Overall bit rate : 2 050 Kbps
Encoded date : UTC 2015-07-11 01:27:27
Tagged date : UTC 2015-07-11 01:27:27
Writing application : Yamb 2.1.0.0 [http://yamb.unite-video.com]
Video
ID : 1
Format : AVC
Format/Info : Advanced Video Codec
Format profile : [email protected]
Format settings, CABAC : Yes
Format settings, ReFrames : 4 frames
Codec ID : avc1
Codec ID/Info : Advanced Video Coding
Duration : 24mn 59s
Bit rate : 1 854 Kbps
Maximum bit rate : 14.4 Mbps
Width : 1 280 pixels
Height : 720 pixels
Display aspect ratio : 16:9
Frame rate mode : Constant
Frame rate : 23.976 fps
Color space : YUV
Chroma subsampling : 4:2:0
Bit depth : 8 bits
Scan type : Progressive
Bits/(Pixel*Frame) : 0.084
Stream size : 332 MiB (90%)
Title : 264
Writing library : x264 core 129 r2245+729M 1a52e03
Encoding settings : cabac=1 / ref=4 / deblock=1:1:-1 / analyse=0x3:0x113 / me=umh / subme=9 / psy=1 / fade_compensate=0.00 / psy_rd=1.00:0.00 / mixed_ref=1 / me_range=24 / chroma_me=1 / trellis=2 / 8x8dct=1 / cqm=0 / deadzone=21,11 / fast_pskip=1 / chroma_qp_offset=-2 / threads=8 / lookahead_threads=1 / sliced_threads=0 / nr=0 / decimate=1 / interlaced=0 / bluray_compat=0 / constrained_intra=0 / fgo=0 / bframes=9 / b_pyramid=2 / b_adapt=2 / b_bias=0 / direct=1 / weightb=1 / open_gop=0 / weightp=2 / keyint=240 / keyint_min=24 / scenecut=40 / intra_refresh=0 / rc=crf / mbtree=0 / crf=18.5 / qcomp=0.72 / qpmin=0 / qpmax=69 / qpstep=4 / ip_ratio=1.40 / pb_ratio=1.30 / aq=1:0.85
Encoded date : UTC 2015-07-11 05:48:03
Tagged date : UTC 2015-07-11 01:27:32
Color primaries : BT.709
Transfer characteristics : BT.709
Matrix coefficients : BT.709
Color range : Limited
Audio
ID : 2
Format : AAC
Format/Info : Advanced Audio Codec
Format profile : LC
Codec ID : 40
Duration : 24mn 59s
Bit rate mode : Variable
Bit rate : 192 Kbps
Maximum bit rate : 195 Kbps
Channel(s) : 2 channels
Channel positions : Front: L R
Sampling rate : 48.0 KHz
Compression mode : Lossy
Stream size : 34.3 MiB (9%)
Language : English
Encoded date : UTC 2015-07-11 01:27:31
Tagged date : UTC 2015-07-11 01:27:32


Последний раз редактировалось: SoluSoull (2015-10-04 10:05), всего редактировалось 6 раз(а)

Создавать темы 17-Сен-2015 14:16

[Профиль]  [ЛС] 

SNIL

Стаж: 5 лет 9 месяцев

Сообщений: 2624

Симпатии: 341

https://tas-ix.net/viewtopic.php?t=108528 суда я пока поставил поглощена, вы с ним обговорили то что перебьёте его релиз?

Создавать темы 17-Сен-2015 19:25

[Профиль]  [ЛС] 

SoluSoull ®

Стаж: 2 года 7 месяцев

Сообщений: 379

Симпатии: 452

нет, он не против

Комментарий от SNIL


Тогда вопросов нет!

Создавать темы 18-Сен-2015 19:08

[Профиль]  [ЛС] 

SoluSoull ®

Стаж: 2 года 7 месяцев

Сообщений: 379

Симпатии: 452

10

Создавать темы 23-Сен-2015 12:37

[Профиль]  [ЛС] 

Азиз87

Стаж: 4 года 11 месяцев

Сообщений: 752

Симпатии: 143

10-11 серии просто улет, не подвел выбор Рикимару касательно данного сюжета.

Создавать темы 26-Сен-2015 21:31

[Профиль]  [ЛС] 

SoluSoull ®

Стаж: 2 года 7 месяцев

Сообщений: 379

Симпатии: 452

11

Создавать темы 28-Сен-2015 17:01

[Профиль]  [ЛС] 

SoluSoull ®

Стаж: 2 года 7 месяцев

Сообщений: 379

Симпатии: 452

всё

Создавать темы 30-Сен-2015 10:12

[Профиль]  [ЛС] 

Топик был перенесен из форума Аниме онгоинги в форум HD, HDTVRip
[email protected]

Создавать темы 30-Сен-2015 10:14

 

SoluSoull ®

Стаж: 2 года 7 месяцев

Сообщений: 379

Симпатии: 452

модераторы дайте доступ к релизу, придурки с анидаба забыли рус глос ники л вшить, нужно заменить (завтра) 11 и 12 серию

Комментарий от [email protected]


Поставил статус временная

Создавать темы 03-Окт-2015 14:31

[Профиль]  [ЛС] 

SoluSoull ®

Стаж: 2 года 7 месяцев

Сообщений: 379

Симпатии: 452

всё заменил нужные серии, можете качать

Создавать темы 04-Окт-2015 10:06

[Профиль]  [ЛС] 

SNIL

Стаж: 5 лет 9 месяцев

Сообщений: 2624

Симпатии: 341

Очень странное аниме (на столько странное что я аж мангу начал читать:)

Создавать темы 04-Окт-2015 14:12

[Профиль]  [ЛС] 

nesage

Стаж: 6 лет 5 месяцев

Сообщений: 42

Симпатии: 34

Манга убойная.Тупость парней убивает ) Особенно Киеши этого )

Создавать темы 04-Окт-2015 14:53

[Профиль]  [ЛС] 

sensey

Стаж: 2 года 4 месяца

Сообщений: 1

дайте раздачу плз

Создавать темы 25-Янв-2016 01:36

[Профиль]  [ЛС] 
Показать сообщения:    
Ответить на тему

Текущее время: 21-Окт 17:22

Часовой пояс: UTC + 5



Вы не можете начинать темы
Вы не можете отвечать на сообщения
Вы не можете редактировать свои сообщения
Вы не можете удалять свои сообщения
Вы не можете голосовать в опросах
Вы не можете прикреплять файлы к сообщениям
Вы не можете скачивать файлы