Стар Треш: Шерлок против Робокопа / Star Trek Into Darkness (Дж. Дж. Абрамс / J.J. Abrams, Гном Пасаран) [2013 / 2014, США, пародия, фантастика, комедия, HDRip] (MVO : смешной перевод студии "deBohpodast'")

Ответить на тему
 

igor1968 ®

Стаж: 5 лет 8 месяцев

Сообщений: 366

Симпатии: 197

Стар Треш: Шерлок против Робокопа / Star Trek Into Darkness /смешной перевод студии "deBohpodast'"
Страна: США
Жанр: пародия, фантастика, комедия
Год выпуска: 2013 / 2014
Продолжительность: 02:03:05
Перевод: Любительский (многоголосый закадровый)
Доп. инфо о переводе смешной перевод студии "deBohpodast'"
Cубтитры: нет
Режиссер: Дж. Дж. Абрамс / J.J. Abrams , Гном Пасаран
В ролях: Крис Пайн, Закари Куинто, Бенедикт Камбербэтч, Саймон Пегг, Карл Урбан, Зои Салдана, Элис Ив, Джон Чо, Антон Ельчин, Питер Уэллер
Описание: Бравый звездолёт "Энтерпрайз" бодро кружит по галактике, якобы совершая научные экспедиции. На самом же деле на борту звездолёта находится команда, которую к науке лучше не подпускать. Команда эта не славится ни умом, ни доблестью, ни умением вести бой или, хотя бы, управлять своим кораблём. Зато умеет вляпываться в разнообразные неприятности.
На сей раз капитан Кирк и его команда подряжаются найти и обезвредить опасного террориста, за которого назначено немалое вознаграждение. Но нашли, как всегда, ворох самых неожиданных проблем. Бравую команду ждёт клубок межгалактических интриг, противостояние с пришельцами из далёкого прошлого, огонь, вода и медный таз, которым всё грозит накрыться, если экипаж "Энтерпрайза" не разрулит ситуацию.
Примечание автора раздачи:
Релиз от Альянса Вольных Переводчиков.
Смешной перевод фильма "Стартрек: Возмездие" от студии deBohpodast', создателей "Хоббита с татуировкой дракона". Фильм монтажный, присутствуют кадры из многих кинокартин о космосе.
Это не продолжение "Звездопупа" от той же студии, это полностью автономный проект. Хотя характеры лучших героев "Звездопупа" перекочевали сюда.
Нецензурная речь отсутствует.
Качество видео: HDRip
Формат видео: AVI
Видео: 720x304 (2.37:1), 23.976 fps, XviD build 47 ~2315 kbps avg, 0.44 bit/pixel
Аудио: 48 kHz, MPEG Layer 3, 2 ch, ~192.00 kbps avg

MediaInfo

General
Complete name : Star.Tresh.Sherlock.protiv.Robocopa.HDRip.2014.avi
Format : AVI
Format/Info : Audio Video Interleave
Format profile : OpenDML
File size : 2.16 GiB
Duration : 2h 3mn
Overall bit rate : 2 514 Kbps
Writing application : VirtualDubMod 1.5.10.2 (build 2540/release)
Writing library : VirtualDubMod build 2540/release
Video
ID : 0
Format : MPEG-4 Visual
Format profile : Advanced [email protected]
Format settings, BVOP : 2
Format settings, QPel : No
Format settings, GMC : No warppoints
Format settings, Matrix : Default (MPEG)
Codec ID : XVID
Codec ID/Hint : XviD
Duration : 2h 3mn
Bit rate : 2 310 Kbps
Width : 720 pixels
Height : 304 pixels
Display aspect ratio : 2.35:1
Frame rate : 23.976 fps
Color space : YUV
Chroma subsampling : 4:2:0
Bit depth : 8 bits
Scan type : Progressive
Compression mode : Lossy
Bits/(Pixel*Frame) : 0.440
Stream size : 1.99 GiB (92%)
Writing library : XviD 1.2.0.dev47 (UTC 2006-11-01)
Audio
ID : 1
Format : MPEG Audio
Format version : Version 1
Format profile : Layer 3
Codec ID : 55
Codec ID/Hint : MP3
Duration : 2h 3mn
Bit rate mode : Constant
Bit rate : 192 Kbps
Channel(s) : 2 channels
Sampling rate : 48.0 KHz
Compression mode : Lossy
Stream size : 169 MiB (8%)
Alignment : Aligned on interleaves
Interleave, duration : 42 ms (1.00 video frame)
Interleave, preload duration : 504 ms

Скриншоты








Последний раз редактировалось: igor1968 (2015-09-18 03:06), всего редактировалось 1 раз

Создавать темы 18-Сен-2015 02:07

[Профиль]  [ЛС] 
Показать сообщения:    
Ответить на тему

Текущее время: 22-Ноя 18:07

Часовой пояс: UTC + 5



Вы не можете начинать темы
Вы не можете отвечать на сообщения
Вы не можете редактировать свои сообщения
Вы не можете удалять свои сообщения
Вы не можете голосовать в опросах
Вы не можете прикреплять файлы к сообщениям
Вы не можете скачивать файлы