Уроборос / Ouroboros [10/10] (Ишии Ясухару) [2015, детектив, TVRip] [RAW] [480p]

Ответить на тему
 

Jasur S ®

Стаж: 4 года 6 месяцев

Сообщений: 110

Симпатии: 111

Уроборос / Ouroboros- -Год выпуска: 2015
Страна: Япония
Жанр: детектив
Продолжительность: 10 серий по 45 минут, 1 серия - 60 минут
Перевод: Русские субтитры-Режиссер: Ишии Ясухару-В ролях:
Икута Тома - Рюдзаки Икуо
Огури Шун - Данно Тацуя
Уэно Джури - Хибино Мизуки
Йошида Йо - Тачибана Томико
Муро Цуеши - Фукамачи Такеши
Сеино Нана - Тамура Конатасу
Хиросуэ Рёко - Кашиваба Юико-Описание:
Пятнадцать лет назад два друга росли в маленьком приюте. Воспитывала их прекрасная воспитательница, которую любили все дети.
Но однажды ее убивают. Убийство остается безнаказанным и мальчики решают отомстить.
А для осуществления мести надо стать большим человеком, подняться на самую вершину - в полиции, и в мафии.-Доп. информация: Первые четыре серии скачаны с внутренних ресурсов и чуть отличаются размером и качеством...)-1-4 серии
Качество: HDTRip
Формат: MP4
Видео кодек: AVC
Аудио кодек: AAC
Видео: MPEG4 Video (H264) 720x480 29.97fps 1001kbps [Video]
Аудио: AAC 44100Hz stereo 127kbps [Audio] Язык Японский-5-10 серии
Качество: TVRip
Формат: MP4
Видео кодек: AVC
Аудио кодек: AAC
Видео: ([email protected]) разрешение 848x480 Кадр/сек 29,97 Битрейт (kbps) 787
Аудио: каналов: 2, Частота 48 KHz Битрейт 128 Кбит/сек Язык Японский

MediaInfo

General
Complete name : D:\Ouroboros\ep01.mp4
Format : MPEG-4
Format profile : Base Media
Codec ID : isom
File size : 485 MiB
Duration : 59mn 48s
Overall bit rate mode : Variable
Overall bit rate : 1 135 Kbps
Encoded date : UTC 2015-04-09 06:57:38
Tagged date : UTC 2015-04-09 06:57:38
Video
ID : 1
Format : AVC
Format/Info : Advanced Video Codec
Format profile : [email protected]
Format settings, CABAC : No
Format settings, ReFrames : 1 frame
Codec ID : avc1
Codec ID/Info : Advanced Video Coding
Duration : 59mn 48s
Bit rate mode : Variable
Bit rate : 1 002 Kbps
Maximum bit rate : 1 200 Kbps
Width : 720 pixels
Height : 480 pixels
Display aspect ratio : 3:2
Frame rate mode : Constant
Frame rate : 29.970 fps
Original frame rate : 24.000 fps
Standard : NTSC
Color space : YUV
Chroma subsampling : 4:2:0
Bit depth : 8 bits
Scan type : Progressive
Bits/(Pixel*Frame) : 0.097
Stream size : 429 MiB (88%)
Encoded date : UTC 2015-04-09 06:57:38
Tagged date : UTC 2015-04-09 06:57:38
Audio
ID : 2
Format : AAC
Format/Info : Advanced Audio Codec
Format profile : LC
Codec ID : 40
Duration : 59mn 48s
Bit rate mode : Variable
Bit rate : 128 Kbps
Channel(s) : 2 channels
Channel positions : Front: L R
Sampling rate : 44.1 KHz
Compression mode : Lossy
Stream size : 54.8 MiB (11%)
Encoded date : UTC 2015-04-09 06:57:38
Tagged date : UTC 2015-04-09 06:57:38
General
Complete name : D:\Ouroboros\[alliance] Ouroboros ep06.mp4
Format : MPEG-4
Format profile : Base Media
Codec ID : isom
File size : 336 MiB
Duration : 46mn 19s
Overall bit rate mode : Variable
Overall bit rate : 1 015 Kbps
Encoded date : UTC 2015-02-21 02:41:44
Tagged date : UTC 2015-02-21 02:41:44
Video
ID : 1
Format : AVC
Format/Info : Advanced Video Codec
Format profile : [email protected]
Format settings, CABAC : Yes
Format settings, ReFrames : 4 frames
Codec ID : avc1
Codec ID/Info : Advanced Video Coding
Duration : 46mn 19s
Bit rate : 883 Kbps
Maximum bit rate : 7 539 Kbps
Width : 848 pixels
Height : 480 pixels
Display aspect ratio : 16:9
Frame rate mode : Constant
Frame rate : 29.970 fps
Color space : YUV
Chroma subsampling : 4:2:0
Bit depth : 8 bits
Scan type : Progressive
Bits/(Pixel*Frame) : 0.072
Stream size : 292 MiB (87%)
Writing library : x264 core 142 r2431 ac76440
Encoding settings : cabac=1 / ref=3 / deblock=1:0:0 / analyse=0x3:0x113 / me=hex / subme=7 / psy=1 / psy_rd=1.00:0.00 / mixed_ref=1 / me_range=16 / chroma_me=1 / trellis=1 / 8x8dct=1 / cqm=0 / deadzone=21,11 / fast_pskip=1 / chroma_qp_offset=-2 / threads=12 / lookahead_threads=2 / sliced_threads=0 / nr=0 / decimate=1 / interlaced=0 / bluray_compat=0 / constrained_intra=0 / bframes=3 / b_pyramid=2 / b_adapt=1 / b_bias=0 / direct=1 / weightb=1 / open_gop=0 / weightp=2 / keyint=300 / keyint_min=29 / scenecut=40 / intra_refresh=0 / rc_lookahead=40 / rc=crf / mbtree=1 / crf=22.0 / qcomp=0.60 / qpmin=0 / qpmax=69 / qpstep=4 / ip_ratio=1.40 / aq=1:1.00
Encoded date : UTC 2015-02-21 02:41:44
Tagged date : UTC 2015-02-21 02:41:48
Audio
ID : 2
Format : AAC
Format/Info : Advanced Audio Codec
Format profile : LC
Codec ID : 40
Duration : 46mn 19s
Bit rate mode : Variable
Bit rate : 128 Kbps
Maximum bit rate : 138 Kbps
Channel(s) : 2 channels
Channel positions : Front: L R
Sampling rate : 48.0 KHz
Compression mode : Lossy
Stream size : 42.4 MiB (13%)
Encoded date : UTC 2015-02-21 02:18:42
Tagged date : UTC 2015-02-21 02:41:48

Скриншоты






Последний раз редактировалось: Jasur S (2015-10-02 16:51), всего редактировалось 6 раз(а)

Создавать темы 18-Сен-2015 10:51

[Профиль]  [ЛС] 

Jasur S ®

Стаж: 4 года 6 месяцев

Сообщений: 110

Симпатии: 111

Здравствуйте!) Так как я уезжаю, меня некоторое время может не быть в сидерах) Думаю со вторника опять начну раздавать))

Создавать темы 19-Сен-2015 08:29

[Профиль]  [ЛС] 

f0xis0ne

Стаж: 2 года

Сообщений: 7

Симпатии: 4

А с переводом нету этого сериала? А то смотреть с субтитрами я не привык (

Создавать темы 27-Сен-2015 19:06

[Профиль]  [ЛС] 

Jasur S ®

Стаж: 4 года 6 месяцев

Сообщений: 110

Симпатии: 111

f0xis0ne, Нет у меня нету с переводом) Так как мне нравиться смотреть с субтитрами ведь все равно те кто сидят в студии и не являются сами актерами не смогут передать эмоции и чувства актеров в полной мере) Думаю есть с переводом любительским но вне зоны тас икса)

Создавать темы 27-Сен-2015 21:09

[Профиль]  [ЛС] 
Показать сообщения:    
Ответить на тему

Текущее время: 25-Сен 23:39

Часовой пояс: UTC + 5



Вы не можете начинать темы
Вы не можете отвечать на сообщения
Вы не можете редактировать свои сообщения
Вы не можете удалять свои сообщения
Вы не можете голосовать в опросах
Вы не можете прикреплять файлы к сообщениям
Вы не можете скачивать файлы