ГРАНЬ / ボーダー / BORDER [9/9] (Хашимото Хаджимэ / Hashimoto Hajime) [2014, Детектив, мистика, HDTVRip] [RAW] [720p]

Ответить на тему
 

Jasur S ®

Стаж: 4 года 4 месяца

Сообщений: 110

Симпатии: 111

ГРАНЬ / ボーダー / BORDER- -Год выпуска: 2014
Страна: Япония
Жанр: Детектив, мистика
Продолжительность: 9 серий по 53 минуты
Перевод: Русские субтитры-Режиссер: Хашимото Хаджимэ / Hashimoto Hajime-В ролях:
Огури Шун /Oguri Shun
Аоки Мунетака / Aoki Munetaka
Хару / Haru
Эндо Кеничи / Endo Kenichi
Фурута Арата / Furuta Arata
Такито Кеничи / Takito Kenichi
Номагучи Тору / Nomaguchi Toru-Описание:
Исикава Анго (Огури Шун) детектив с острым умом. Он в отличной физической форме, а также весьма амбициозный. Анго трудоголик и у него нет личной жизни. Однажды, убивают полицейского. Анго идет на место преступления, но его убивают выстрелом в голову. Убийца скрывается с места преступления. Анго колеблется между жизнью и смертью. Его волнуют вопросы "Куда отправляются люди после смерти?", и "Я не хочу умирать." Затем происходит чудо и Анго выживает с пулей в голове. Он возвращается к работе. Новое убийство не заставило себя долго ждать. Когда Анго идет на место преступления замечает мальчика, который будто собирается плакать, Анго не обратил особого внимания на мальчика. Оказалось мальчик был убит. Анго с тех пор может видеть и разговаривать с мертвыми и они помогают раскрыть их убийства.-Качество: HDTVRip
Формат: MP4
Видео кодек: AVC
Аудио кодек: AAC
Видео: [email protected]; 1280x720; 1993 kbps; 29,970 fps
Аудио: AAC; 128 kbps; 44,1 Hz; 2 канала

MediaInfo

General
Complete name : D:\Border\[Kingdom Loli-Pop_Stars] BORDER 01.mp4
Format : MPEG-4
Format profile : Base Media
Codec ID : isom
File size : 898 MiB
Duration : 58mn 54s
Overall bit rate mode : Variable
Overall bit rate : 2 130 Kbps
Tagged date : UTC 2014-04-10 16:01:13
Writing application : Lavf55.19.104
Video
ID : 1
Format : AVC
Format/Info : Advanced Video Codec
Format profile : [email protected]
Format settings, CABAC : Yes
Format settings, ReFrames : 5 frames
Codec ID : avc1
Codec ID/Info : Advanced Video Coding
Duration : 58mn 54s
Bit rate : 1 993 Kbps
Width : 1 280 pixels
Height : 720 pixels
Display aspect ratio : 16:9
Frame rate mode : Constant
Frame rate : 29.970 fps
Color space : YUV
Chroma subsampling : 4:2:0
Bit depth : 8 bits
Scan type : Progressive
Bits/(Pixel*Frame) : 0.072
Stream size : 840 MiB (94%)
Writing library : x264 core 140 r2377M 1ca7bb9
Audio
ID : 2
Format : AAC
Format/Info : Advanced Audio Codec
Format profile : LC
Codec ID : 40
Duration : 58mn 54s
Duration_LastFrame : -7ms
Bit rate mode : Variable
Bit rate : 128 Kbps
Maximum bit rate : 3 000 Kbps
Channel(s) : 2 channels
Channel positions : Front: L R
Sampling rate : 44.1 KHz
Compression mode : Lossy
Stream size : 53.9 MiB (6%)

Скриншоты






Последний раз редактировалось: Jasur S (2015-10-02 16:51), всего редактировалось 2 раз(а)

Создавать темы 18-Сен-2015 11:32

[Профиль]  [ЛС] 

Jasur S ®

Стаж: 4 года 4 месяца

Сообщений: 110

Симпатии: 111

Здравствуйте!) Так как я уезжаю, меня некоторое время может не быть в сидерах) Думаю со вторника опять начну раздавать))

Создавать темы 19-Сен-2015 08:29

[Профиль]  [ЛС] 

alisher.1989

Стаж: 5 лет 5 месяцев

Сообщений: 92

Симпатии: 6

ждем...

Создавать темы 21-Сен-2015 09:55

[Профиль]  [ЛС] 

Jasur S ®

Стаж: 4 года 4 месяца

Сообщений: 110

Симпатии: 111

Если сидеров здесь будет достаточно сегодня оформлю еще два релиза)

Создавать темы 22-Сен-2015 09:26

[Профиль]  [ЛС] 
Показать сообщения:    
Ответить на тему

Текущее время: 17-Авг 20:28

Часовой пояс: UTC + 5



Вы не можете начинать темы
Вы не можете отвечать на сообщения
Вы не можете редактировать свои сообщения
Вы не можете удалять свои сообщения
Вы не можете голосовать в опросах
Вы не можете прикреплять файлы к сообщениям
Вы не можете скачивать файлы