Эй, люби меня всерьёз! / Maji de Watashi ni Koi Shinasai!! (Мотонага Кэйтаро) [TV] [12 из 12] [без хардсаба] [RUS(ext), JAP+SUB] [2011 г., приключения, комедия, этти, гарем, школа, BDRip] [720p]

Ответить на тему
 

Razrushitel ®

Стаж: 4 года 4 месяца

Сообщений: 148

Симпатии: 42

- Страна: Япония
Год выпуска: 2011
Выпуск: c 02.10.2011 по 18.12.2011
Жанр: приключения, комедия, этти, гарем, школа
Тип: TV (12 эп.), 24 мин.-Перевод:
  • русские субтитры от Advantage (полные/вспомогательные)
    переводчик/оформление: Nachtwandler, редакторы: Dimak, Feliss
Озвучивание:
  • двухголосая (жен./муж.) от Eladiel & Zendos (Animedia)
-Режиссер: Мотонага Кэйтаро
Автор оригинала: Такаяма Кацухико
Студия: Lerche-Описание: В некотором японском городке с малых лет жила-была «семья Кадзама» - дружная компания из четырех парней и трех девчонок. Однако главный герой аниме вовсе не Сёйти Кадзама по прозвищу Капитан, а тактик группы и всеобщий любимец Ямато Наоэ. Зачем группе тактик? А затем, что почти все герои и героини – потомки самураев, мастера боевых искусств, и вопросы привыкли решать, как их далекие предки в Сэнгоку Дзидай. В старшей школе Каваками самурайский дух в почете, и веселая компания приросла симпатичными и весьма способными девушками. А вот главная проблема героя все равно осталась!
Все дело в том, что когда-то парень признался в любви Момоё Каваками – на год старшей заводиле группы, яркой и сильной девушке, да еще и внучке директора местной академии. Та ответила, что тоже любит Ямато – но только как младшего брата. Годы шли, Момоё стала еще красивее и заслужила славу лучшего бойца в округе, но вот отношения с Наоэ менять не собирается. Конечно, в мире самураев желаемое завоевывают, но что делать герою, который, мягко говоря, не дотягивает до боевой элиты? Очень просто – действовать головой и победить как любимую, так и всех подруг, которые насчет личной жизни Ямато давно имеют собственное мнение!© Hollow, World Art--Информационные ссылки: AniDB || World Art || MyAnimeList--MyAnimeList.NET: 7.06 (scored by 39,319 users)
Ranked: #2954--Качество: BDRip
Encode: Yousei-raws || Re-encoded: Razrushitel
Тип видео: без хардсаба || Формат: mkv
Видео: x264 (Hi10p), 1280x720, ~800 Kbps, 23.976 fps
Аудио JAP: AC3, 48000Hz, ~128 Kbps, 2ch (в составе контейнера)
Аудио RUS: AC3, 48000Hz, ~128 Kbps, 2ch (внешними файлами)-

Список эпизодов

01. Seriously Bring it on!!
02. Seriously Complete Your Duties!!
03. Seriously Get Turned On By Me!!
04. Seriously Talk with Me!!
05. Seriously Get Angry at Me!!
06. Seriously Take It with Me!!
07. Seriously Go Out with Me!!
08. Seriously Explain Your Circumstances!!
09. Seriously Come Out to Me!!
10. Seriously Clash With Me!!
11. Seriously Sortie With Me!!
12. Seriously, Fall in Love with Me!!

Скриншоты

Отличия

HDTVRip vs BDRip, альтернативная русская озвучка

Подробные тех. данные

Общее
Уникальный идентификатор                 : 194577061507069517635094094313413064937 (0x92622DCE02E9E7E4A3A40BA9798AB8E9)
Полное имя                               : E:\*****\Maji de Watashi ni Koi Shinasai!! [BD] [720p]\Maji de Watashi ni Koi Shinasai!! - 01 [Hi 10] [BD 720p].mkv
Формат                                   : Matroska
Версия формата                           : Version 2
Размер файла                             : 222 Мбайт
Продолжительность                        : 23 м. 51 с.
Общий поток                              : 1300 Кбит/сек
Дата кодирования                         : UTC 2015-07-05 08:39:54
Программа кодирования                    : mkvmerge v7.7.0 ('Six Voices') 32bit built on Feb 28 2015 23:23:00
Библиотека кодирования                   : libebml v1.3.1 + libmatroska v1.4.2
_STATISTICS_WRITING_APP                  : mkvmerge v7.7.0 ('Six Voices') 32bit built on Feb 28 2015 23:23:00
_STATISTICS_WRITING_DATE_UTC             : 2015-07-05 08:39:54
_STATISTICS_TAGS                         : BPS DURATION NUMBER_OF_FRAMES NUMBER_OF_BYTES
DURATION                                 : 00:23:51.136000000
NUMBER_OF_FRAMES                         : 44723
NUMBER_OF_BYTES                          : 22898176
Видео
Идентификатор                            : 1
Формат                                   : AVC
Формат/Информация                        : Advanced Video Codec
Профиль формата                          : High [email protected]
Параметр CABAC формата                   : Да
Параметр ReFrames формата                : 4 кадра
Идентификатор кодека                     : V_MPEG4/ISO/AVC
Продолжительность                        : 23 м. 51 с.
Битрейт                                  : 1146 Кбит/сек
Ширина                                   : 1280 пикселей
Высота                                   : 720 пикселей
Соотношение сторон                       : 16:9
Режим частоты кадров                     : Постоянный
Частота кадров                           : 23,976 кадра/сек
Цветовое пространство                    : YUV
Субдискретизация насыщенности            : 4:2:0
Битовая глубина                          : 10 бит
Тип развёртки                            : Прогрессивная
Бит/(Пиксели*Кадры)                      : 0.052
Размер потока                            : 196 Мбайт (88%)
Библиотека кодирования                   : x264 core 146 r2538 121396c
Настройки программы                      : cabac=1 / ref=3 / deblock=1:0:0 / analyse=0x3:0x113 / me=hex / subme=7 / psy=1 / psy_rd=1.00:0.00 / mixed_ref=1 / me_range=16 / chroma_me=1 / trellis=1 / 8x8dct=1 / cqm=0 / deadzone=21,11 / fast_pskip=1 / chroma_qp_offset=-2 / threads=3 / lookahead_threads=1 / sliced_threads=0 / nr=0 / decimate=1 / interlaced=0 / bluray_compat=0 / constrained_intra=0 / bframes=3 / b_pyramid=2 / b_adapt=1 / b_bias=0 / direct=1 / weightb=1 / open_gop=0 / weightp=2 / keyint=240 / keyint_min=23 / scenecut=40 / intra_refresh=0 / rc_lookahead=40 / rc=crf / mbtree=1 / crf=23.0 / qcomp=0.60 / qpmin=0 / qpmax=81 / qpstep=4 / ip_ratio=1.40 / aq=1:1.00
Default                                  : Да
Forced                                   : Нет
Аудио
Идентификатор                            : 2
Формат                                   : AC-3
Формат/Информация                        : Audio Coding 3
Расширение режима                        : CM (complete main)
Параметр Endianness формата              : Big
Идентификатор кодека                     : A_AC3
Продолжительность                        : 23 м. 51 с.
Вид битрейта                             : Постоянный
Битрейт                                  : 128 Кбит/сек
Каналы                                   : 2 канала
Расположение каналов                     : Front: L R
Частота                                  : 48,0 КГц
Битовая глубина                          : 16 бит
Метод сжатия                             : С потерями
Размер потока                            : 21,8 Мбайт (10%)
Язык                                     : Japanese
Default                                  : Да
Forced                                   : Нет

Информация о релизе

  • Данный релиз предназначен для просмотра на ПК. Воспроизведение на иных проигрывателях не гарантируется. Для просмотра рекомендуется Media Player Classic с установленным пакетом кодеков K-Lite.
  • Данный релиз содержит 10-битное видео (Hi10p). Для корректного воспроизведения обязательно используйте кодеки, поддерживающие 10-битное видео.
  • Данный релиз предназначен для просмотра с внешними субтитрами и внешними звуковыми дорожками.
    • Для просмотра с внешней звуковой дорожкой нужно:
      перекинуть файлы .mka из папки "RUS Sound [<автор(ы) озвучки>]" в одну папку с видео и переключить звуковую дорожку в плеере при просмотре.
    • Для просмотра с субтитрами нужно:
      перекинуть файлы .ass из папки "RUS Subtitles [<автор(ы) перевода>]" в одну папку с видео - плеер подгрузит их автоматически при открытии видео.

Создавать темы 18-Сен-2015 12:52

[Профиль]  [ЛС] 

Razrushitel ®

Стаж: 4 года 4 месяца

Сообщений: 148

Симпатии: 42

У нас трансформатор взорвался Т_Т раздача на некоторое время прекращается Т_Т
UPD. утром фух... пронесло, раздача как обычно :D

Создавать темы 19-Сен-2015 02:18

[Профиль]  [ЛС] 

Jahongir027

Стаж: 3 года 9 месяцев

Сообщений: 31

Симпатии: 10

а где скорость

Создавать темы 02-Янв-2016 17:17

[Профиль]  [ЛС] 

First Wolf

Стаж: 4 года 5 месяцев

Сообщений: 7

Симпатии: 2

скорости дайте

Создавать темы 28-Апр-2016 20:58

[Профиль]  [ЛС] 
Показать сообщения:    
Ответить на тему

Текущее время: 24-Окт 10:59

Часовой пояс: UTC + 5



Вы не можете начинать темы
Вы не можете отвечать на сообщения
Вы не можете редактировать свои сообщения
Вы не можете удалять свои сообщения
Вы не можете голосовать в опросах
Вы не можете прикреплять файлы к сообщениям
Вы не можете скачивать файлы