Опасное обольщение / Dunkle Lust (Уолтер Доэхнер) [2010, Мексика, триллер, DVDRip]

Ответить на тему
 

Sobir_01 ®

Стаж: 3 года 9 месяцев

Сообщений: 13

Симпатии: 4

Опасное обольщение / Dunkle Lust
Страна: Мексика
Жанр: триллер
Год выпуска: 2010
Продолжительность: 01:29:21
Перевод: Профессиональный (многоголосый закадровый)
Cубтитры: нет
Режиссер: Уолтер Доэхнер / Walter Doehner
В ролях: Элисабет Сервантес, Хулио Бекор, Марко Антонио Тревиньо, Клаудия Шмидт, Росио Васкез.
Описание: Лора работает косметическим хирургом, а Густаво становится ее практикантом. Мужчина привлекает внимание своего босса тем, что сетует на недостаток денег для продолжения его медицинского образования. Однако, этого ему мало — герой фильма намерено обольщает одинокую женщину и уже вскоре поселяется в ее доме. Поняв, что поспешила с серьезными отношениями, Лора просит любовника съехать. Но ей еще только предстоит узнать, каков он на самом деле.
Качество видео: DVDRip
Формат видео: AVI
Видео: XviD 720x400, 24.000 fps, 1944 kbps
Аудио: AC3 6ch, 48.0 Hz, 384 Kbps
возраст: 18+

MediaInfo

E:\My video clips\Kino\Dunkle Lust.avi
General
Complete name : E:\My video clips\Kino\Dunkle Lust.avi
Format : AVI
Format/Info : Audio Video Interleave
File size : 1.46 GiB
Duration : 1h 29mn
Overall bit rate : 2 337 Kbps
Writing application : VirtualDubMod 1.5.10.2 (build 2540/release)
Writing library : VirtualDubMod build 2540/release
Video #0
ID : 0
Format : MPEG-4 Visual
Format profile : Advanced [email protected]
Format settings, BVOP : 2
Format settings, QPel : No
Format settings, GMC : No warppoints
Format settings, Matrix : Default (MPEG)
Codec ID : XVID
Codec ID/Hint : XviD
Duration : 1h 29mn
Bit rate : 1 944 Kbps
Width : 720 pixels
Height : 400 pixels
Display aspect ratio : 16:9
Frame rate : 24.000 fps
Color space : YUV
Chroma subsampling : 4:2:0
Bit depth : 8 bits
Scan type : Progressive
Compression mode : Lossy
Bits/(Pixel*Frame) : 0.281
Stream size : 1.21 GiB (83%)
Writing library : XviD 1.2.1 (UTC 2008-12-04)
Audio #1
ID : 1
Format : AC-3
Format/Info : Audio Coding 3
Mode extension : CM (complete main)
Format settings, Endianness : Big
Codec ID : 2000
Duration : 1h 29mn
Bit rate mode : Constant
Bit rate : 384 Kbps
Channel count : 6 channels
Channel positions : Front: L C R, Side: L R, LFE
Sampling rate : 48.0 KHz
Bit depth : 16 bits
Compression mode : Lossy
Stream size : 245 MiB (16%)
Alignment : Split accross interleaves
Interleave, duration : 42 ms (1.00 video frame)
Interleave, preload duration : 500 ms

Скриншоты





Создавать темы 18-Сен-2015 17:12

[Профиль]  [ЛС] 
Показать сообщения:    
Ответить на тему

Текущее время: 21-Сен 08:29

Часовой пояс: UTC + 5



Вы не можете начинать темы
Вы не можете отвечать на сообщения
Вы не можете редактировать свои сообщения
Вы не можете удалять свои сообщения
Вы не можете голосовать в опросах
Вы не можете прикреплять файлы к сообщениям
Вы не можете скачивать файлы