Формула 1 / Сезон 2012 / Этапов 17 из 20 (1-10, 14-20)/ Гонка / Спорт 1 HD, Россия 2 / Formula 1 World Championship 2012 Round 17 of 20 (1-10, 14-20)/Race (Берни Эклстоун) [2012, 17 стран, Спорт, HDRip] (Dub : Алексей Попов)

Ответить на тему
 

beshka666 ®

Стаж: 2 года 3 месяца

Сообщений: 34

Симпатии: 20

Формула 1 / Сезон 2012 / Этапов 17 из 20 (1-10, 14-20)/ Гонка / Спорт 1 HD, Россия 2 / Formula 1 World Championship 2012 Round 17 of 20 (1-10, 14-20)/Race
Страна: 17 стран
Жанр: Спорт/Формула 1
Год выпуска: 2012
Продолжительность: 01:16:52:18
Язык коментвриев: Русский (Алексей Попов и Наталья Фабричнова)
Cубтитры: нет
Режиссер: http://www.formula1.com/
Участники: Пилоты королевских гонок
Описание: 17 Этапов (с 1-го по 10-ый, с 14-го по 20-ый) чемпионата мира 2012 года в гонках класса Формула !
Доп. информация: Один из самых напряженных чемпионатов. В первых семи гонках победители - семь разных пилотов! После 15 этапа на титул реально претендуют 6 пилотов, Судьба чемпионского титула определилась лишь в последней гонке. Подобный расклад был в 2007 году когда после последней гонки У Кими райконена было 110 очков (чемпион) а у Хамильтона и Алонсо по 109.
Качество видео: HDRip
Формат видео: MP4
Видео: MPEG4 Video (H264) 1280x720 50fps 1317kbps
Аудио: AAC 48000Hz stereo 96kbps

MediaInfo

General
Complete name : D:\кино\Формула 1\2012\01.Aus.mp4
Format : MPEG-4
Format profile : Base Media
Codec ID : isom
File size : 1.38 GiB
Duration : 2h 19mn
Overall bit rate mode : Variable
Overall bit rate : 1 421 Kbps
Encoded date : UTC 2012-01-02 07:58:31
Tagged date : UTC 2012-01-02 07:58:31
Video
ID : 1
Format : AVC
Format/Info : Advanced Video Codec
Format profile : [email protected]
Format settings, CABAC : Yes
Format settings, ReFrames : 1 frame
Codec ID : avc1
Codec ID/Info : Advanced Video Coding
Duration : 2h 19mn
Source duration : 2h 19mn
Bit rate : 1 317 Kbps
Width : 1 280 pixels
Height : 720 pixels
Display aspect ratio : 16:9
Frame rate mode : Constant
Frame rate : 50.000 fps
Color space : YUV
Chroma subsampling : 4:2:0
Bit depth : 8 bits
Scan type : Progressive
Bits/(Pixel*Frame) : 0.029
Stream size : 1.28 GiB (93%)
Source stream size : 1.28 GiB (93%)
Language : English
Encoded date : UTC 2012-01-02 07:58:31
Tagged date : UTC 2012-01-02 07:58:31
mdhd_Duration : 8366880
Audio
ID : 2
Format : AAC
Format/Info : Advanced Audio Codec
Format profile : LC
Codec ID : 40
Duration : 2h 19mn
Source duration : 2h 19mn
Bit rate mode : Variable
Bit rate : 96.0 Kbps
Maximum bit rate : 137 Kbps
Channel count : 2 channels
Channel positions : Front: L R
Sampling rate : 48.0 KHz
Compression mode : Lossy
Stream size : 95.8 MiB (7%)
Source stream size : 95.8 MiB (7%)
Language : English
Encoded date : UTC 2012-01-02 07:58:37
Tagged date : UTC 2012-01-02 07:58:37
mdhd_Duration : 8367134

Скриншот c названием фильма

Скриншоты






Создавать темы 19-Сен-2015 11:58

[Профиль]  [ЛС] 

vir922

Стаж: 2 года 8 месяцев

Сообщений: 1

beshka666, привет. а есть отдельная гонка - Канада 2011 года?

Создавать темы 05-Июн-2016 17:30

[Профиль]  [ЛС] 
Показать сообщения:    
Ответить на тему

Текущее время: 18-Дек 13:54

Часовой пояс: UTC + 5



Вы не можете начинать темы
Вы не можете отвечать на сообщения
Вы не можете редактировать свои сообщения
Вы не можете удалять свои сообщения
Вы не можете голосовать в опросах
Вы не можете прикреплять файлы к сообщениям
Вы не можете скачивать файлы