Ветер любви / Koi Kaze (Омори Такахиро) [TV] [13 из 13] [без хардсаба] [JAP+SUB] [2004 г., романтика, драма, повседневность, DVDRip]

Ответить на тему
 

KiLLeT ®

Стаж: 5 лет 8 месяцев

Сообщений: 102

Ветер любви || Koi Kaze-Год выпуска: 2004 г.
Страна: Япония
Жанр: романтика, драма, повседневность
Продолжительность: ТВ (13 эп.), 23 мин.-Перевод:
  • русские субтитры от Александр Гавриленко (эп. 01-08, 10-13) & Satera (эп. 09) & Illuminar (эп. 09)
-Студия:
Режиссер: Омори Такахиро-Описание: Двадцатисемилетний Коширо Саэки работает в службе знакомств, но его собственная личная жизнь оставляет желать лучшего. Коширо — второй ребёнок разведенной пары и живёт с отцом. Мать и младшую сестру парень не видел уже много лет.
Но вот, после того, как его бросает девушка, он встречает пятнадцатилетнюю школьницу Наноку и неожиданно влюбляется в неё. Однако судьба смеётся над Коширо: девушка оказывается его младшей сестрой и переезжает жить в его дом. Тем не менее чувства в сердце юноши не утихают, и он не знает, что теперь делать.-Информационные ссылки: AniDB || World Art || MAL-MyAnimeList.NET: 7.39 (scored by 12974 users), Ranked: #1880
World-Art Rating: Средний балл: 8.4 из 10; Место в рейтинге: 363 из 2444-Качество: DVDRip
Тип видео: без хардсаба, без линковки
Энкод: GrimRipper
Формат: MKV
Видео: x264, 8 bit, 712×480 (704×480 для эп. 05-09) @864×480, 23.976 кадр/сек, ~1500 кбит/сек
Аудио JAP: AC3, 2 ch, 48 кГц, 192 кбит/сек-

Подробные тех. данные

General
Unique ID : 235324358060333142668665453286019108221 (0xB109D2A1EBA2626BA8FCDC157A790D7D)
Complete name : ***\Koi Kaze\Koi Kaze 01 [GrimRipper].mkv
Format : Matroska
Format version : Version 2
File size : 297 MiB
Duration : 23mn 27s
Overall bit rate : 1 772 Kbps
Encoded date : UTC 2014-11-11 09:58:08
Writing application : mkvmerge v5.8.0 ('No Sleep / Pillow') built on Sep 2 2012 15:37:04
Writing library : libebml v1.2.3 + libmatroska v1.3.0
Video
ID : 1
Format : AVC
Format/Info : Advanced Video Codec
Format profile : [email protected]
Format settings, CABAC : Yes
Format settings, ReFrames : 16 frames
Codec ID : V_MPEG4/ISO/AVC
Duration : 23mn 27s
Bit rate : 1 544 Kbps
Width : 712 pixels
Height : 480 pixels
Display aspect ratio : 16:9
Original display aspect ratio : 16:9
Frame rate mode : Constant
Frame rate : 23.976 fps
Original frame rate : 24.403 fps
Color space : YUV
Chroma subsampling : 4:2:0
Bit depth : 8 bits
Scan type : Progressive
Bits/(Pixel*Frame) : 0.188
Stream size : 259 MiB (87%)
Writing library : x264 core 119 r2106+636 fcb18f7
Encoding settings : cabac=1 / ref=16 / deblock=1:1:1 / analyse=0x3:0x133 / me=tesa / subme=11 / psy=1 / fade_compensate=0.70 / psy_rd=0.40:0.00 / mixed_ref=1 / me_range=24 / chroma_me=1 / trellis=2 / 8x8dct=1 / cqm=0 / deadzone=21,11 / fast_pskip=0 / chroma_qp_offset=-2 / threads=12 / sliced_threads=0 / nr=0 / decimate=0 / interlaced=0 / bluray_compat=0 / constrained_intra=0 / fgo=0 / bframes=16 / b_pyramid=2 / b_adapt=2 / b_bias=0 / direct=3 / weightb=1 / open_gop=0 / weightp=2 / keyint=250 / keyint_min=24 / scenecut=40 / intra_refresh=0 / rc_lookahead=60 / rc=crf / mbtree=1 / crf=14.0 / qcomp=0.60 / qpmin=0 / qpmax=51 / qpstep=4 / ip_ratio=1.40 / aq=1:0.60
Default : Yes
Forced : No
Audio
ID : 2
Format : AC-3
Format/Info : Audio Coding 3
Mode extension : CM (complete main)
Format settings, Endianness : Big
Codec ID : A_AC3
Duration : 23mn 27s
Bit rate mode : Constant
Bit rate : 192 Kbps
Channel(s) : 2 channels
Channel positions : Front: L R
Sampling rate : 48.0 KHz
Bit depth : 16 bits
Compression mode : Lossy
Stream size : 32.2 MiB (11%)
Language : Japanese
Default : Yes
Forced : No
Menu
00:00:00.000 : en:Opening
00:01:40.500 : en:Episode
00:21:34.877 : en:Ending
00:23:12.000 : en:Preview

Список эпизодов

01. Сакура в цвету
02. Остановись, весны мгновенье
03. Ветер перемен
04. Вечером в душе...
05. Гроза грохочет вдалеке...
06. Осенняя меланхолия
07. Буря мглою небо кроет...
08. И выпал первый снег...
09. Цветок на ветру
10. Под холодной луной
11. Долгими зимними вечерами...
12. Гроза по весне
13. Сердечные муки

Скриншоты


Создавать темы 19-Сен-2015 15:35

[Профиль]  [ЛС] 

KiLLeT ®

Стаж: 5 лет 8 месяцев

Сообщений: 102

Немного своеобразной романтики :D
Разделом кажись ошибся, переместите плз.

Создавать темы 19-Сен-2015 15:39

[Профиль]  [ЛС] 

Топик был перенесен из форума DVD, DVDRip в форум RAW с фансабом
[email protected]

Создавать темы 19-Сен-2015 17:42

 

RocknRollа

Стаж: 3 года 8 месяцев

Сообщений: 38

Симпатии: 6

Мне кажется или данное аниме надо было перенести куда подальше, но не в RAW

Создавать темы 30-Ноя-2015 15:27

[Профиль]  [ЛС] 
Показать сообщения:    
Ответить на тему

Текущее время: 22-Окт 09:37

Часовой пояс: UTC + 5



Вы не можете начинать темы
Вы не можете отвечать на сообщения
Вы не можете редактировать свои сообщения
Вы не можете удалять свои сообщения
Вы не можете голосовать в опросах
Вы не можете прикреплять файлы к сообщениям
Вы не можете скачивать файлы