Астрал 3 / Insidious: Chapter 3 (Ли Уоннелл / Leigh Whannell) [2015, ужасы, WEB-DL 1080p] [iTunes]

Ответить на тему
 

Zab ®

Стаж: 6 лет 5 месяцев

Сообщений: 476

Симпатии: 424

Астрал 3 | Insidious: Chapter 3«У каждой истории есть начало...»- Год выпуска: 2015
Страна: Канада, США / Automatik Entertainment, Blumhouse Productions, Entertainment One
Жанр: ужасы
Продолжительность: 01:37:20
Перевод: Профессиональный (дублированный) [iTunes]
Субтитры: нет-Режиссер: Ли Уоннелл / Leigh Whannell
В ролях: Стефани Скотт, Дермот Малруни, Энгус Сэмпсон, Ли Уоннелл, Лин Шэй, Тейт Берни, Майкл Рид МакКей, Стив Култер, Хейли Кийоко-О фильме: История о том, как одаренный экстрасенс Элис Рейнер неохотно соглашается использовать свои способности для установления связи с мертвыми, чтобы помочь девочке-подростку, которая стала мишенью для опасной сверхъестественной сущности.- -Качество: WEB-DL 1080p
Формат: MKV
Видео: MPEG-4 AVC, 4387 kb/s, 1916x800
Аудио: 48 kHz, AC3 Dolby Digital, (6 ch), ~384 kbps |Russian - Dub (iTunes)|

MI

General
Unique ID                      : 183765583088163301582880359532737701816 (0x8A3FF6C39307390FB4B67A70F9EDA7B8)
Complete name                  : D:\[Movies]\ACtra1.3.2015.D.WEB-DL.1080p.mkv
Format                         : Matroska
Format version                 : Version 4 / Version 2
File size                      : 3.31 GiB
Duration                       : 1h 37mn
Overall bit rate               : 4 868 Kbps
Encoded date                   : UTC 2015-09-16 18:16:38
Writing application            : mkvmerge v6.9.1 ('Blue Panther') 64bit built on Apr 18 2014 18:23:38
Writing library                : libebml v1.3.0 + libmatroska v1.4.1
Video
ID                             : 1
Format                         : AVC
Format/Info                    : Advanced Video Codec
Format profile                 : [email protected]
Format settings, CABAC         : Yes
Format settings, ReFrames      : 5 frames
Codec ID                       : V_MPEG4/ISO/AVC
Duration                       : 1h 37mn
Bit rate                       : 4 387 Kbps
Width                          : 1 916 pixels
Height                         : 800 pixels
Display aspect ratio           : 2.40:1
Frame rate mode                : Constant
Frame rate                     : 23.976 fps
Color space                    : YUV
Chroma subsampling             : 4:2:0
Bit depth                      : 8 bits
Scan type                      : Progressive
Bits/(Pixel*Frame)             : 0.119
Stream size                    : 2.98 GiB (90%)
Language                       : English
Default                        : Yes
Forced                         : No
Color primaries                : BT.709
Transfer characteristics       : BT.709
Matrix coefficients            : BT.709
Audio
ID                             : 2
Format                         : AC-3
Format/Info                    : Audio Coding 3
Mode extension                 : CM (complete main)
Format settings, Endianness    : Big
Codec ID                       : A_AC3
Duration                       : 1h 37mn
Bit rate mode                  : Constant
Bit rate                       : 384 Kbps
Channel(s)                     : 6 channels
Channel positions              : Front: L C R, Side: L R, LFE
Sampling rate                  : 48.0 KHz
Bit depth                      : 16 bits
Compression mode               : Lossy
Stream size                    : 267 MiB (8%)
Language                       : Russian
Default                        : Yes
Forced                         : No
Menu
00:00:00.000                   : en:1
00:09:38.000                   : en:2
00:11:00.000                   : en:3
00:15:08.000                   : en:4
00:20:12.000                   : en:5
00:26:12.000                   : en:6
00:32:58.000                   : en:7
00:41:47.000                   : en:8
00:49:35.000                   : en:9
00:57:27.000                   : en:10
01:03:06.000                   : en:11
01:07:59.000                   : en:12
01:11:49.000                   : en:13
01:16:19.000                   : en:14
01:22:02.000                   : en:15
01:29:09.000                   : en:16

Скриншоты



Создавать темы 19-Сен-2015 16:51

[Профиль]  [ЛС] 
Показать сообщения:    
Ответить на тему

Текущее время: 25-Сен 05:41

Часовой пояс: UTC + 5



Вы не можете начинать темы
Вы не можете отвечать на сообщения
Вы не можете редактировать свои сообщения
Вы не можете удалять свои сообщения
Вы не можете голосовать в опросах
Вы не можете прикреплять файлы к сообщениям
Вы не можете скачивать файлы