Особое мнение / Minority Report / Сезон: 1 / Серии: 10 из 10 (Марк Майлод) [2015, Фантастика, драма, WEB-DLRip] MVO (NewStudio)

Ответить на тему
 

Mamutov ®

Стаж: 4 года 9 месяцев

Сообщений: 255

Симпатии: 144

-Особое мнение / Minority Report- -Год выпуска: 2015
Страна: США
Жанр: Фантастика, Драма
Продолжительность: ~ 00:43:00
-Перевод: Профессиональный (многоголосый закадровый)(NewStudio)
Режиссёр: Марк Майлод
-В ролях: Мэган Гуд, Уилмер Вальдеррама, Ник Зано, Лаура Риган, Старк Сэндс, Коннор Филдинг, Ли Цзюнь Ли, Дэниэл Лондон, Тина Лиффорд, Эндрю Стюарт-Джонс
-Описание: Спустя 10 лет после событий фильма один из трех Провидцев пытается вести «нормальную» человеческую жизнь, но по-прежнему преследуется видениями будущего, когда встречает детектива, преследуемую своим прошлым, которая может помочь найти предназначение его дару.

Качество: WEB-DLRip
Формат: AVI
Видео кодек: XviD
Аудио кодек: MP3
Видео: XviD, 720x400 (16:9), 23,976 fps, ~1450 kbps
Аудио: MP3, 48 kHz, 2 ch, 128 kbps, CBR - Rus
Аудио: MP3, 48 kHz, 2 ch, 128 kbps, CBR - Eng

Релиз

Релиз NewStudio
Перевод: Юля Мейер

MediaInfo

Общее
Полное имя : X:\ATorrent\Minority Report (S01) NewStudio\Minority.Report.s01e01.WEB-DLRip.NewStudio.avi
Формат : AVI
Формат/Информация : Audio Video Interleave
Размер файла : 541 Мбайт
Продолжительность : 44 м.
Общий поток : 1699 Кбит/сек
Программа кодирования : VirtualDubMod 1.5.10.3 | www.virtualdub-fr.org || (build 2550/release)
Библиотека кодирования : VirtualDubMod build 2550/release
Видео
Идентификатор : 0
Формат : MPEG-4 Visual
Профиль формата : Advanced [email protected]
Параметр BVOP формата : 2
Параметр QPel формата : Нет
Параметр GMC формата : Без точки перехода
Параметр матрицы формата : Default (MPEG)
Идентификатор кодека : XVID
Идентификатор кодека/Подсказка : XviD
Продолжительность : 44 м.
Битрейт : 1429 Кбит/сек
Ширина : 720 пикселей
Высота : 400 пикселей
Соотношение сторон : 16:9
Частота кадров : 23,976 кадра/сек
Цветовое пространство : YUV
Субдискретизация насыщенности : 4:2:0
Битовая глубина : 8 бит
Тип развёртки : Прогрессивная
Метод сжатия : С потерями
Бит/(Пиксели*Кадры) : 0.207
Размер потока : 455 Мбайт (84%)
Библиотека кодирования : XviD 73
Аудио #1
Идентификатор : 1
Формат : MPEG Audio
Версия формата : Version 1
Профиль формата : Layer 3
Режим : Joint stereo
Расширение режима : MS Stereo
Идентификатор кодека : 55
Идентификатор кодека/Подсказка : MP3
Продолжительность : 44 м.
Вид битрейта : Постоянный
Битрейт : 128 Кбит/сек
Каналы : 2 канала
Частота : 48,0 КГц
Метод сжатия : С потерями
Размер потока : 40,8 Мбайт (8%)
Выравнивание : Соединение по промежуткам
Продолжительность промежутка : 42 мс. (1,00 видеокадр)
Время предзагрузки промежутка : 504 мс.
Аудио #2
Идентификатор : 2
Формат : MPEG Audio
Версия формата : Version 1
Профиль формата : Layer 3
Режим : Joint stereo
Расширение режима : MS Stereo
Идентификатор кодека : 55
Идентификатор кодека/Подсказка : MP3
Продолжительность : 44 м.
Вид битрейта : Постоянный
Битрейт : 128 Кбит/сек
Каналы : 2 канала
Частота : 48,0 КГц
Метод сжатия : С потерями
Размер потока : 40,8 Мбайт (8%)
Выравнивание : Соединение по промежуткам
Продолжительность промежутка : 42 мс. (1,00 видеокадр)
Время предзагрузки промежутка : 504 мс.
Библиотека кодирования : LAME3.99.5ЄЄЄЄЄЄЄЄЄЄ

Скриншоты





Последний раз редактировалось: Mamutov (2015-12-18 19:29), всего редактировалось 14 раз(а)

Создавать темы 19-Сен-2015 19:52

[Профиль]  [ЛС] 

krocki

Стаж: 2 года 6 месяцев

Сообщений: 57

Симпатии: 1

Надо было Тома Круза в сериал затолкать. ag

Создавать темы 19-Сен-2015 20:19

[Профиль]  [ЛС] 

Mamutov ®

Стаж: 4 года 9 месяцев

Сообщений: 255

Симпатии: 144

2 серия теперь WEB-DLRip

Создавать темы 02-Окт-2015 09:09

[Профиль]  [ЛС] 

Mamutov ®

Стаж: 4 года 9 месяцев

Сообщений: 255

Симпатии: 144

3 серия

Создавать темы 09-Окт-2015 08:51

[Профиль]  [ЛС] 

Mamutov ®

Стаж: 4 года 9 месяцев

Сообщений: 255

Симпатии: 144

4 серия

Создавать темы 18-Окт-2015 09:14

[Профиль]  [ЛС] 

Mamutov ®

Стаж: 4 года 9 месяцев

Сообщений: 255

Симпатии: 144

5 серия

Создавать темы 23-Окт-2015 09:08

[Профиль]  [ЛС] 

Mamutov ®

Стаж: 4 года 9 месяцев

Сообщений: 255

Симпатии: 144

6 серия

Создавать темы 30-Окт-2015 19:11

[Профиль]  [ЛС] 

Mamutov ®

Стаж: 4 года 9 месяцев

Сообщений: 255

Симпатии: 144

6 серия

Создавать темы 09-Ноя-2015 00:02

[Профиль]  [ЛС] 

Mamutov ®

Стаж: 4 года 9 месяцев

Сообщений: 255

Симпатии: 144

8 серия

Создавать темы 23-Ноя-2015 08:33

[Профиль]  [ЛС] 

Mamutov ®

Стаж: 4 года 9 месяцев

Сообщений: 255

Симпатии: 144

9 серия

Создавать темы 28-Ноя-2015 23:56

[Профиль]  [ЛС] 

Mamutov ®

Стаж: 4 года 9 месяцев

Сообщений: 255

Симпатии: 144

10 серия
конец сезона

Создавать темы 06-Дек-2015 11:04

[Профиль]  [ЛС] 
Показать сообщения:    
Ответить на тему

Текущее время: 24-Окт 12:41

Часовой пояс: UTC + 5



Вы не можете начинать темы
Вы не можете отвечать на сообщения
Вы не можете редактировать свои сообщения
Вы не можете удалять свои сообщения
Вы не можете голосовать в опросах
Вы не можете прикреплять файлы к сообщениям
Вы не можете скачивать файлы