КВН - 2015. Встреча выпускников

Ответить на тему
 

refantom ®

Стаж: 5 лет 8 месяцев

Сообщений: 195

Симпатии: 86

Название: КВН - 2015. Встреча выпускников
Релиз: 2015 (13 сентября)
Страна: Россия
Режиссер: Светлана Маслякова
Жанр: комедия, семейный
Длительность: 2ч 33мин
Описание:
Завершает неделю КВН в Сочи игра между выпускниками. На сцене Летнего театра в парке им. М. В. Фрунзе сойдутся легендарные команды: «Утомленные солнцем» (сборная Краснодарского края), «Максимум» из Томска, Сборная РУДН (Москва) и «Нарты из Абхазии» (Сухум). Кавээнщики часто говорят, что КВН для них – это настоящая школа. Так и появилась идея провести встречу выпускников. Тем более, что все четыре коллектива отмечают в этом году свои юбилеи. Специально для встречи выпускников был придуман новый конкурс, какого в КВН раньше не было. Конкурс-ремейк под названием «Вспомнить все!»: командам предложат показать какой-либо из своих старых номеров, который необходимо осовременить.
Видео:720х400 , 25.976 00, 1797 Kbps
Аудио:48.0 KHz, AC-3, 192 Kbps (2 ch)

Медиаинфо

General
Format : AVI
Format/Info : Audio Video Interleave
Format profile : OpenDML
File size : 2.14 GiB
Duration : 2h 33mn
Overall bit rate : 2 002 Kbps
Writing application : VirtualDubMod 1.5.10.3 (build 2550/release)
Writing library : VirtualDubMod build 2550/release
Video #0
ID : 0
Format : MPEG-4 Visual
Format profile : Advanced [email protected]
Format settings, BVOP : 1
Format settings, QPel : No
Format settings, GMC : No warppoints
Format settings, Matrix : Custom
Codec ID : XVID
Codec ID/Hint : XviD
Duration : 2h 33mn
Bit rate : 1 797 Kbps
Width : 720 pixels
Height : 400 pixels
Display aspect ratio : 16:9
Frame rate : 25.000 fps
Color space : YUV
Chroma subsampling : 4:2:0
Bit depth : 8 bits
Scan type : Progressive
Compression mode : Lossy
Bits/(Pixel*Frame) : 0.250
Stream size : 1.92 GiB (90%)
Writing library : XviD 73
Audio #1
ID : 1
Format : AC-3
Format/Info : Audio Coding 3
Mode extension : CM (complete main)
Format settings, Endianness : Big
Codec ID : 2000
Duration : 2h 33mn
Bit rate mode : Constant
Bit rate : 192 Kbps
Channel count : 2 channels
Channel positions : Front: L R
Sampling rate : 48.0 KHz
Bit depth : 16 bits
Compression mode : Lossy
Stream size : 210 MiB (10%)
Alignment : Split accross interleaves
Interleave, duration : 40 ms (1.00 video frame)
Interleave, preload duration : 500 ms

Скриншоты





_________________
Подпись отключена за нарушение правил форума


Последний раз редактировалось: refantom (2015-10-12 01:23), всего редактировалось 3 раз(а)

Создавать темы 20-Сен-2015 01:55

[Профиль]  [ЛС] 

EPMAK

Стаж: 2 года 6 месяцев

Сообщений: 255

Симпатии: 179

крутяк как раз хотел посмотреть,а то был на работе,спасибо автору

Создавать темы 20-Сен-2015 13:31

[Профиль]  [ЛС] 

refantom ®

Стаж: 5 лет 8 месяцев

Сообщений: 195

Симпатии: 86

952057крутяк как раз хотел посмотреть,а то был на работе,спасибо автору
На здоровье! Отпишись потом, как игра. aa Кроме абхазов, остальные вроде ничего выступили. Для встречи выпускников вполне неплохо.

_________________
Подпись отключена за нарушение правил форума

Создавать темы 20-Сен-2015 13:42

[Профиль]  [ЛС] 

EPMAK

Стаж: 2 года 6 месяцев

Сообщений: 255

Симпатии: 179

Игра ничего.Особенно понравились «Максимум» Томска и«Утомленные солнцем».
Ремейк лучше получился у команды «Максимум» , особенно я смеялся про злую немецкую старуху и заморского кащея.
А концовка за «Утомленные солнцем». У Москвичей тоже были приколы.Мне понравилось как Путин прыгал по трубе.
В целом игра неплохая, учитывая что они давно не играют.

Создавать темы 02-Окт-2015 10:30

[Профиль]  [ЛС] 

victor0778

Стаж: 6 лет 8 месяцев

Сообщений: 1670

Симпатии: 142

refantom, укажите качество видео

Создавать темы 03-Окт-2015 13:31

[Профиль]  [ЛС] 

refantom ®

Стаж: 5 лет 8 месяцев

Сообщений: 195

Симпатии: 86

953804refantom, укажите качество видео
Не очень в курсе, о каком качестве видео идет речь, а главное, где его посмотреть и как узнать? Поставил программку Медиаинфо, могу медиаданные оттуда скопировать... но где среди этого текста сведения о качестве видео?....
Видео
Идентификатор : 0
Формат : MPEG-4 Visual
Профиль формата : Advanced [email protected]
Параметр BVOP формата : 1
Параметр QPel формата : Нет
Параметр GMC формата : Без точки перехода
Параметр матрицы формата : Выборочная
Идентификатор кодека : XVID
Идентификатор кодека/Подсказка : XviD
Продолжительность : 2 ч. 33 м.
Битрейт : 1797 Кбит/сек
Ширина : 720 пикселей
Высота : 400 пикселей
Соотношение сторон : 16:9
Частота кадров : 25,000 кадров/сек
Цветовое пространство : YUV
Субдискретизация насыщенности : 4:2:0
Битовая глубина : 8 бит
Тип развёртки : Прогрессивная
Метод сжатия : С потерями
Бит/(Пиксели*Кадры) : 0.250
Размер потока : 1,92 Гбайт (90%)
Библиотека кодирования : XviD 73

_________________
Подпись отключена за нарушение правил форума


Последний раз редактировалось: refantom (2015-10-13 18:49), всего редактировалось 1 раз

Создавать темы 04-Окт-2015 22:43

[Профиль]  [ЛС] 

refantom ®

Стаж: 5 лет 8 месяцев

Сообщений: 195

Симпатии: 86

А в ответ — тишина....

_________________
Подпись отключена за нарушение правил форума

Создавать темы 11-Окт-2015 14:59

[Профиль]  [ЛС] 

victor0778

Стаж: 6 лет 8 месяцев

Сообщений: 1670

Симпатии: 142

954747А в ответ — тишина....
Вы же его где то скачали или сами записали, а медиа инфо о качестве фильма не показывает ни какой информации

Создавать темы 12-Окт-2015 09:22

[Профиль]  [ЛС] 

refantom ®

Стаж: 5 лет 8 месяцев

Сообщений: 195

Симпатии: 86

954821
954747А в ответ — тишина....
Вы же его где то скачали или сами записали, а медиа инфо о качестве фильма не показывает ни какой информации
Я его на Киномане скачал, а там инфы о файле практически ноль.

_________________
Подпись отключена за нарушение правил форума

Создавать темы 13-Окт-2015 18:50

[Профиль]  [ЛС] 

refantom ®

Стаж: 5 лет 8 месяцев

Сообщений: 195

Симпатии: 86

Вопрос решился просто, на Рутрекере появился аналогичный релиз. Оттуда и скопировал данные о качестве видео.

_________________
Подпись отключена за нарушение правил форума

Создавать темы 13-Окт-2015 18:51

[Профиль]  [ЛС] 
Показать сообщения:    
Ответить на тему

Текущее время: 24-Окт 14:39

Часовой пояс: UTC + 5



Вы не можете начинать темы
Вы не можете отвечать на сообщения
Вы не можете редактировать свои сообщения
Вы не можете удалять свои сообщения
Вы не можете голосовать в опросах
Вы не можете прикреплять файлы к сообщениям
Вы не можете скачивать файлы