Врата тьмы / Pay the Ghost (Ули Эдель) [2015, США, ужасы, триллер, WEB-DLRip] [GreenРай Studio]

Ответить на тему
 

Каротажник ®

Стаж: 4 года 2 месяца

Сообщений: 195

Симпатии: 211

Врата тьмы / Pay the Ghost Страна: США
Жанр: ужасы, триллер--Год выпуска: 2015
Продолжительность: 01:34:05--Перевод: Любительский двухголосый [GreenРай Studio]
Режиссер: Ули Эдель
В ролях: Николас Кейдж, Сара Уэйн Кэллис, Алекс Маллари мл., Вероника Феррес, Лайрик Бент, Джек Фултон, София Уэллс, Элизабет Джинн ле Ру, Эрин Бойес, Хо Чоу--Описание: Существует древнее поверье, что раз в год, на Хэллоуин, открываются врата между миром живых и миром мертвых. В этот день зло практически всесильно...
Во время ночного праздничного парада в Нью-Йорке у профессора Майка Кола бесследно пропадает его маленький сын. Полиции не удается найти ребенка, однако после собственного расследования отец узнает, что некое мощное древнее проклятие забирает детей каждый год. Чтобы вернуть себе своего сына, у него есть только один шанс - в ночь на Хэллоуин отправиться по ту сторону врат тьмы....-- 
--Качество видео: WEB-DLRip
Формат видео: AVI--Видео: Xvid 720x304 23.976fps 1758kbps
Аудио: AC3 48000Hz 6ch 384kbps

MediaInfo

Format : AVI
Format/Info : Audio Video Interleave
File size : 1.41 GiB
Duration : 1h 34mn
Overall bit rate : 2 152 Kbps
Writing application : VirtualDubMod 1.5.10.3 | www.virtualdub-fr.org || (build 2550/release)
Writing library : VirtualDubMod build 2550/release
Video
ID : 0
Format : MPEG-4 Visual
Format profile : Advanced [email protected]
Format settings, BVOP : 2
Format settings, QPel : No
Format settings, GMC : No warppoints
Format settings, Matrix : Default (H.263)
Muxing mode : Packed bitstream
Codec ID : XVID
Codec ID/Hint : XviD
Duration : 1h 34mn
Bit rate : 1 758 Kbps
Width : 720 pixels
Height : 304 pixels
Display aspect ratio : 2.35:1
Frame rate : 23.976 fps
Color space : YUV
Chroma subsampling : 4:2:0
Bit depth : 8 bits
Scan type : Progressive
Compression mode : Lossy
Bits/(Pixel*Frame) : 0.335
Stream size : 1.16 GiB (82%)
Writing library : XviD 66
Audio
ID : 1
Format : AC-3
Format/Info : Audio Coding 3
Mode extension : CM (complete main)
Format settings, Endianness : Big
Codec ID : 2000
Duration : 1h 34mn
Bit rate mode : Constant
Bit rate : 384 Kbps
Channel(s) : 6 channels
Channel positions : Front: L C R, Side: L R, LFE
Sampling rate : 48.0 KHz
Bit depth : 16 bits
Compression mode : Lossy
Stream size : 258 MiB (18%)
Alignment : Split accross interleaves
Interleave, duration : 42 ms (1.00 video frame)
Interleave, preload duration : 500 ms

Скриншоты


Создавать темы 20-Сен-2015 07:24

[Профиль]  [ЛС] 

nigga22480

Стаж: 7 лет 7 месяцев

Сообщений: 211

Симпатии: 13

Сайлент Хилл стайл

Создавать темы 20-Сен-2015 09:22

[Профиль]  [ЛС] 

kiborg911

Стаж: 6 лет 10 месяцев

Сообщений: 58

Симпатии: 3

А профессиональный многоголосый закадровый перевод фильма будет?

Создавать темы 22-Сен-2015 23:29

[Профиль]  [ЛС] 
Показать сообщения:    
Ответить на тему

Текущее время: 13-Дек 06:42

Часовой пояс: UTC + 5



Вы не можете начинать темы
Вы не можете отвечать на сообщения
Вы не можете редактировать свои сообщения
Вы не можете удалять свои сообщения
Вы не можете голосовать в опросах
Вы не можете прикреплять файлы к сообщениям
Вы не можете скачивать файлы