27 свадеб / 27 Dresses (Энн Флетчер / ANNE FLETCHER) [2008, США, комедия, мелодрама, DVDRip] (Dub)

Ответить на тему
 

Margilana ®

Стаж: 2 года 2 месяца

Сообщений: 3

27 свадеб / 27 Dresses
Страна: США
Жанр: комедия, мелодрама
Год выпуска: 2008
Продолжительность: 1:50:48
Перевод: Профессиональный (дублированный)
Cубтитры: нет
Режиссер: Энн Флетчер / ANNE FLETCHER
В ролях: Кэтрин Хейгл, Джеймс Марсден, Малин Акерман, Эдвард Бёрнс, Джуди Грир, Малик Панхоли, Мелора Хардин, Пейтон Рой Лист
Описание: Побывав в качестве подружки невесты на 27 свадьбах, главная героиня вдруг понимает, что пора бы остановиться и задуматься уже и о собственном замужестве, но напоследок отгулять свадьбу своей сестры. Однако, выясняется, что та собралась замуж за человека, на которого «профессиональная свидетельница» как раз только успела положить глаз. Назревает конфликт…
Качество видео: DVDRip
Формат видео: MP4
Видео: Advanced Video Codec, [email protected], Да, 1 кадр, 398 Кбит/сек
Аудио: 10, 44,1 КГц, 64,0 Кбит/сек, Front: L R

MediaInfo

Полное имя : D:\Video\27 свадеб 27 Dresses (2008).mp4
Формат : Flash Video
Размер файла : 374 Мбайт
Продолжительность : 1 ч. 50 м.
Общий поток : 472 Кбит/сек
Дата пометки : UTC 2011-10-05 23:26:09
Пометившая программа : GOM Video Converter (GFlvWriter 1.0)
Видео
Формат : AVC
Формат/Информация : Advanced Video Codec
Профиль формата : [email protected]
Параметр CABAC формата : Да
Параметр ReFrames формата : 1 кадр
Идентификатор кодека : 7
Продолжительность : 1 ч. 50 м.
Битрейт : 398 Кбит/сек
Ширина : 720 пикселей
Высота : 310 пикселей
Соотношение сторон : 2,35:1
Режим частоты кадров : Постоянный
Частота кадров : 23,976 кадра/сек
Цветовое пространство : YUV
Субдискретизация насыщенности : 4:2:0
Битовая глубина : 8 бит
Тип развёртки : Прогрессивная
Бит/(Пиксели*Кадры) : 0.074
Размер потока : 316 Мбайт (84%)
Аудио
Формат : AAC
Формат/Информация : Advanced Audio Codec
Профиль формата : LC
Идентификатор кодека : 10
Продолжительность : 1 ч. 50 м.
Битрейт : 64,0 Кбит/сек
Каналы : 2 канала
Расположение каналов : Front: L R
Частота : 44,1 КГц
Метод сжатия : С потерями
Размер потока : 50,7 Мбайт (14%)

Скриншоты


Создавать темы 20-Сен-2015 10:19

[Профиль]  [ЛС] 
Показать сообщения:    
Ответить на тему

Текущее время: 11-Дек 14:27

Часовой пояс: UTC + 5



Вы не можете начинать темы
Вы не можете отвечать на сообщения
Вы не можете редактировать свои сообщения
Вы не можете удалять свои сообщения
Вы не можете голосовать в опросах
Вы не можете прикреплять файлы к сообщениям
Вы не можете скачивать файлы