Земля будущего / Tomorrowland (Брэд Бёрд / Brad Bird) [2015, фантастика, боевик, детектив, приключения, семейный, WEB-DL 1080] | Лицензия

Ответить на тему
 

Zab ®

Стаж: 6 лет 4 месяца

Сообщений: 476

Симпатии: 424

Земля будущего | Tomorrowland
«Представьте мир, где возможно всё»
-Год выпуска: 2015
Страна: США, Испания
Жанр: фантастика, боевик, детектив, приключения, семейный
Продолжительность: 02:10:03
Перевод: Профессиональный (дублированный) Лицензия-Режиссер Брэд Бёрд / Brad Bird
В ролях: Бритт Робертсон, Джордж Клуни, Рэффи Кэссиди, Хью Лори, Тим МакГроу, Кэтрин Хан, Кигэн-Майкл Ки, Кристофер Бауэр, Томас Робинсон, Пирс Гэнон-О фильме:: Когда в руки к молодой девушке, жаждущей новых приключений, попадает загадочный предмет, открывающий доступ в параллельную реальность, она вынуждена обратиться за помощью к циничному гению-изобретателю Фрэнку. Кейси должна убедить бывшего вундеркинда раскрыть ей тайну загадочного места, находящегося вне привычной реальности, известного как Земля будущего, и убедить Фрэнка вернуться туда, откуда его однажды изгнали…- -Качество: WEB-DL 1080p
Формат: MKV (AVC)
Видео: 1916x868 (181:82) 23.976fps
Аудио: 48 kHz, AC3, 6ch , ~384.00 kbps avg [RUS]

MI

General
Unique ID                      : 220593081838349737367871505950938141859 (0xA5F4AEA397864CCAB02C6A9A914A94A3)
Complete name                  : D:\[Movies]\3emLiYa.buduW4eg0.2015.D.WEB-DL.1080p.mkv
Format                         : Matroska
Format version                 : Version 4 / Version 2
File size                      : 4.44 GiB
Duration                       : 2h 10mn
Overall bit rate               : 4 873 Kbps
Encoded date                   : UTC 2015-09-20 18:27:01
Writing application            : mkvmerge v6.9.1 ('Blue Panther') 64bit built on Apr 18 2014 18:23:38
Writing library                : libebml v1.3.0 + libmatroska v1.4.1
Video
ID                             : 1
Format                         : AVC
Format/Info                    : Advanced Video Codec
Format profile                 : [email protected]
Format settings, CABAC         : Yes
Format settings, ReFrames      : 5 frames
Codec ID                       : V_MPEG4/ISO/AVC
Duration                       : 2h 10mn
Bit rate                       : 4 392 Kbps
Width                          : 1 916 pixels
Height                         : 868 pixels
Display aspect ratio           : 2.2:1
Frame rate mode                : Constant
Frame rate                     : 23.976 fps
Color space                    : YUV
Chroma subsampling             : 4:2:0
Bit depth                      : 8 bits
Scan type                      : Progressive
Bits/(Pixel*Frame)             : 0.110
Stream size                    : 4.00 GiB (90%)
Language                       : English
Default                        : Yes
Forced                         : No
Color primaries                : BT.709
Transfer characteristics       : BT.709
Matrix coefficients            : BT.709
Audio
ID                             : 2
Format                         : AC-3
Format/Info                    : Audio Coding 3
Mode extension                 : CM (complete main)
Format settings, Endianness    : Big
Codec ID                       : A_AC3
Duration                       : 2h 10mn
Bit rate mode                  : Constant
Bit rate                       : 384 Kbps
Channel(s)                     : 6 channels
Channel positions              : Front: L C R, Side: L R, LFE
Sampling rate                  : 48.0 KHz
Bit depth                      : 16 bits
Compression mode               : Lossy
Stream size                    : 358 MiB (8%)
Language                       : Russian
Default                        : Yes
Forced                         : No
Menu
00:00:00.000                   : en:1
00:16:12.000                   : en:2
00:21:56.000                   : en:3
00:28:52.000                   : en:4
00:37:37.000                   : en:5
00:46:35.000                   : en:6
00:55:00.000                   : en:7
01:11:47.000                   : en:8
01:19:18.000                   : en:9
01:26:44.000                   : en:10
01:30:57.000                   : en:11
01:38:05.000                   : en:12
01:49:50.000                   : en:13
01:56:11.000                   : en:14
02:01:26.000                   : en:15

Скриншоты



Создавать темы 21-Сен-2015 15:19

[Профиль]  [ЛС] 

Страх

Стаж: 3 года 11 месяцев

Сообщений: 1131

Симпатии: 448

Для семейного просмотра рекомендуется.

Создавать темы 21-Сен-2015 17:28

[Профиль]  [ЛС] 

tempo

Стаж: 4 года 11 месяцев

Сообщений: 51

Скажите звук какой TS ???

Создавать темы 21-Сен-2015 21:41

[Профиль]  [ЛС] 

Zab ®

Стаж: 6 лет 4 месяца

Сообщений: 476

Симпатии: 424

952318Скажите звук какой TS ???
ag
Перевод: Профессиональный (дублированный) Лицензия

Создавать темы 21-Сен-2015 22:14

[Профиль]  [ЛС] 
Показать сообщения:    
Ответить на тему

Текущее время: 21-Сен 06:29

Часовой пояс: UTC + 5



Вы не можете начинать темы
Вы не можете отвечать на сообщения
Вы не можете редактировать свои сообщения
Вы не можете удалять свои сообщения
Вы не можете голосовать в опросах
Вы не можете прикреплять файлы к сообщениям
Вы не можете скачивать файлы