Зеленый слоник (Светлана Баскова) [1999, Россия, Арт-хаус / Авторское кино, Треш, Триллер, VHSRip] (Original Rus) [фильм Светланы Басковой]

Ответить на тему
 

nyaPKOMAH ®

Стаж: 2 года 2 месяца

Сообщений: 25

Симпатии: 13

Зеленый слоник / фильм Светланы Басковой
-Страна: Россия
Жанр: Арт-хаус / Авторское кино, Треш, Триллер
Год выпуска: 1999
Продолжительность: 01:27:15-Перевод: Не требуется
Cубтитры: нет
Оригинальная аудиодорожка: русский-Режиссер: Светлана Баскова-В ролях: Сергей Пахомов, Александр Маслаев, Владимир Епифанцев, Анатолий Осмоловский-Описание: Кровь, кровь, кровь. Как когда-то средневековые художники, поклонявшиеся идеалам гуманизма, выбирали своей эмблемой человека, наши соотечественники начала века приняли геометрию в качестве веры, так сегодняшние русские ситуационисты осеняют свое искусство кровью. И если представители западного, более консервативного склада ума, интерпретируют искусство как высшую точку ремесла, то русские ситуационисты торопятся выкрикнуть – выхаркать свой кровавый кусок в стремительный поток вечноменяющейся действительности. И если датские представители новой киноволны, снимающие "с рук" свое "грязное" кино все-равно занимаются эстетическими поисками – русские ситуационисты, с головой ныряя в брутальность стихийного кинопроцесса, отсутствие стилистических тонкостей восполняют захлестывающей энергетикой, густо замешанной на живой жизненной фактуре, неартикулированной, но ясно прочитывающейся социальности, пытаясь в тотальной органичности отыскать камертон сегодняшнего актуального искусства...
"Зеленый Слоник" – это второй фильм Светланы Басковой – профессионального художника, в погоне за адекватностью, взявшего в руки видеокамеру и пригласившего на площадку знакомых художников для участия в трудноопределяемом действии в духе Арто, в этот кровавый кошмар, которым мы называем нашу обыденную действительность, когда теряется грань между ночным мороком и новостями с места военных действий по ТВ. Этим, наверное, усиливая актуальность и обусловлен выбор военных в качестве главных персонажей – невероятно несчастные в начале фильма – сидящие в камере на гауптвахте – когда, как в действительности Кафки, трудно понять кто у кого в заложниках – превращающиеся во имя справедливости в кровавых монстров в конце. Композиция фильма напоминает анатомическую модель общества, если представить, что она существует наподобие препарированной коровы Домиана Хирста, где, несмотря на иерархию внутренних органов, все неразрывно связано.
Привнеся в машинерию съемочного процесса методы художественного мира, можно сказать, что фильм снят в виде развернутого во времени перформанса – транс-action, где жестко намеченная сценарная линия преломляется в реакциях персонажей – конкретных личностей. Внутренние законы ситуационизма антипсихологичны, они не столько враждебны ему, сколько безразличны. Важнее эмблема – татуировка – знак времени, чем его внутренний механизм. Предельная обнаженность языковых конструкций – откровенность доведенная до абсурда, как ни странно рождает образы совершенного другого, "верхнего" порядка. Погружая главных героев в кровавую кашу, режиссер ищет границы ужаса и не находит. Видимо в наши дни для того чтобы вылезти из духовного гетто, надо добираться до дна болота обыденности, во всей неприглядности последнего откровения Трех Всадников, чтобы оттолкнувшись рвануться туда – вверх за спасительным глотком свободы, где существует собственное достоинство и неприкосновенность внутреннего мира.-ВНИМАНИЕ! Детям, беременным, нервным, брезгливым, смотреть крайне не рекомендуется!-Качество видео: VHSRip
Формат видео: MP4
Видео: AVC, 616х480p, 25.0 fps, 580 Kbps
Аудио: AAC, 44.1 KHz, 2channels, ~96kbps

MediaInfo

General
Complete name : Зеленый Слоник.mp4
Format : MPEG-4
Format profile : Base Media
Codec ID : isom
File size : 428 MiB
Duration : 1h 27mn
Overall bit rate mode : Variable
Overall bit rate : 686 Kbps
Encoded date : UTC 1970-01-01 00:00:00
Tagged date : UTC 1970-01-01 00:00:00
Writing application : Lavf52.40.0
Video
ID : 1
Format : AVC
Format/Info : Advanced Video Codec
Format profile : [email protected]
Format settings, CABAC : Yes
Format settings, ReFrames : 3 frames
Codec ID : avc1
Codec ID/Info : Advanced Video Coding
Duration : 1h 27mn
Duration_FirstFrame : 80ms
Bit rate : 580 Kbps
Width : 616 pixels
Height : 480 pixels
Display aspect ratio : 1.283
Frame rate mode : Constant
Frame rate : 25.000 fps
Color space : YUV
Chroma subsampling : 4:2:0
Bit depth : 8 bits
Scan type : Progressive
Bits/(Pixel*Frame) : 0.078
Stream size : 372 MiB (87%)
Writing library : x264 core 79
Encoding settings : cabac=1 / ref=3 / deblock=1:0:0 / analyse=0x3:0x113 / me=hex / subme=7 / psy=1 / psy_rd=1.0:0.0 / mixed_ref=1 / me_range=16 / chroma_me=1 / trellis=1 / 8x8dct=1 / cqm=0 / deadzone=21,11 / chroma_qp_offset=-2 / threads=24 / nr=0 / decimate=1 / mbaff=0 / constrained_intra=0 / bframes=3 / b_pyramid=0 / b_adapt=1 / b_bias=0 / direct=1 / wpredb=32 / wpredp=2 / keyint=250 / keyint_min=25 / scenecut=40 / rc_lookahead=40 / rc=abr / mbtree=1 / bitrate=580 / ratetol=6.9 / qcomp=0.60 / qpmin=10 / qpmax=51 / qpstep=4 / ip_ratio=1.41 / aq=1:1.00
Encoded date : UTC 1970-01-01 00:00:00
Tagged date : UTC 1970-01-01 00:00:00
Audio
ID : 2
Format : AAC
Format/Info : Advanced Audio Codec
Format profile : LC
Codec ID : 40
Duration : 1h 27mn
Bit rate mode : Variable
Bit rate : 84.5 Kbps
Channel(s) : 2 channels
Channel positions : Front: L R
Sampling rate : 44.1 KHz
Compression mode : Lossy
Stream size : 52.7 MiB (12%)
Encoded date : UTC 1970-01-01 00:00:00
Tagged date : UTC 1970-01-01 00:00:00

Скриншоты



Доп информация

если не качается добавьте пир в свой торрент клиент 2001:0:b908:d4d8:3414:22fd:f5df:c1a:21230

Создавать темы 21-Сен-2015 15:20

[Профиль]  [ЛС] 

Mixer City

Стаж: 6 лет 10 месяцев

Сообщений: 754

Симпатии: 63

Видимо к Битве экстрасенсов...

Создавать темы 21-Сен-2015 15:52

[Профиль]  [ЛС] 

Passenger

Стаж: 2 года 8 месяцев

Сообщений: 28

Симпатии: 3

Очень авторское кино, однако. Описание не передает даже малости показанного и сказанного в фильме, бесспорно... Правда, чтобы отсмотреть фильм от начала и до конца без перерыва - надо постараться.

Создавать темы 21-Сен-2015 22:25

[Профиль]  [ЛС] 

Ritos

Стаж: 5 лет 6 месяцев

Сообщений: 33

Симпатии: 5

Господи кто такое описание то придумал для такого фильма)) Кстати, можно подумать что его сняли за 2 часа в подвале режиссера, но на самом деле его снимали целых 3 месяца))

Создавать темы 26-Сен-2015 14:11

[Профиль]  [ЛС] 

yozhik

Стаж: 4 года 6 месяцев

Сообщений: 82

Симпатии: 65

шедевр

Создавать темы 28-Сен-2015 22:36

[Профиль]  [ЛС] 

nyaPKOMAH ®

Стаж: 2 года 2 месяца

Сообщений: 25

Симпатии: 13

Создавать темы 29-Сен-2015 00:14

[Профиль]  [ЛС] 

SNIL

Стаж: 5 лет 10 месяцев

Сообщений: 2624

Симпатии: 341

Спасябки! Заценим!

Создавать темы 24-Дек-2015 23:46

[Профиль]  [ЛС] 

nyaPKOMAH ®

Стаж: 2 года 2 месяца

Сообщений: 25

Симпатии: 13

SNIL, не думаю что просмотр будет из приятных(если вы не фетишист или садист) всё равно приятного просмотра! :D

Создавать темы 25-Дек-2015 18:05

[Профиль]  [ЛС] 

SNIL

Стаж: 5 лет 10 месяцев

Сообщений: 2624

Симпатии: 341

Всем спасибо за скорость!)
nyaPKOMAH, Ну глянем чо)_

Создавать темы 26-Дек-2015 12:36

[Профиль]  [ЛС] 
Показать сообщения:    
Ответить на тему

Текущее время: 18-Ноя 08:00

Часовой пояс: UTC + 5



Вы не можете начинать темы
Вы не можете отвечать на сообщения
Вы не можете редактировать свои сообщения
Вы не можете удалять свои сообщения
Вы не можете голосовать в опросах
Вы не можете прикреплять файлы к сообщениям
Вы не можете скачивать файлы