10 000 км: Любовь на расстоянии / 10.000 Km (Карлос Маркус-Марсет) [2014, Испания, Драма, мелодрама, комедия, HDRip] (DVO)

Ответить на тему
 

akmal-19-66 ®

Стаж: 2 года 7 месяцев

Сообщений: 23

Симпатии: 120

10 000 км: Любовь на расстоянии / 10.000 Km
Страна: Испания
Жанр: Драма, мелодрама, комедия
Год выпуска: 2014
Продолжительность: 01:44:00-Перевод: Профессиональный (двухголосый закадровый)
Cубтитры: нет
Режиссер: Карлос Маркус-Марсет-В ролях: Наталия Тена, Дэвид Вердагер-Описание: Могут ли онлайн-технологии помочь любви пережить разлуку длиною в год и расстояние в 10,000 километров?-Качество видео: WEB-DLRip
Формат видео: AVI-Видео: Xvid 720x384 24fps 1780kbps
Аудио: AC3 48000Hz stereo 192kbps

MediaInfo

General
Complete name : D:\Eski hujjatlar\акмал\upload\10000 km 2014 WEB-DLRip.avi
Format : AVI
Format/Info : Audio Video Interleave
File size : 1.44 GiB
Duration : 1h 43mn
Overall bit rate : 1 982 Kbps
Writing application : VirtualDubMod 1.5.10.3 | www.virtualdub-fr.org || (build 2550/release)
Writing library : VirtualDubMod build 2550/release
Video
ID : 0
Format : MPEG-4 Visual
Format profile : Advanced Simple[email protected]
Format settings, BVOP : Yes
Format settings, QPel : No
Format settings, GMC : No warppoints
Format settings, Matrix : Custom
Codec ID : XVID
Codec ID/Hint : XviD
Duration : 1h 43mn
Bit rate : 1 781 Kbps
Width : 720 pixels
Height : 384 pixels
Display aspect ratio : 1.85:1
Frame rate : 24.000 fps
Color space : YUV
Chroma subsampling : 4:2:0
Bit depth : 8 bits
Scan type : Progressive
Compression mode : Lossy
Bits/(Pixel*Frame) : 0.268
Stream size : 1.29 GiB (90%)
Writing library : XviD 73
Audio
ID : 1
Format : AC-3
Format/Info : Audio Coding 3
Mode extension : CM (complete main)
Format settings, Endianness : Big
Codec ID : 2000
Duration : 1h 43mn
Bit rate mode : Constant
Bit rate : 192 Kbps
Channel(s) : 2 channels
Channel positions : Front: L R
Sampling rate : 48.0 KHz
Bit depth : 16 bits
Compression mode : Lossy
Stream size : 143 MiB (10%)
Alignment : Split accross interleaves
Interleave, duration : 42 ms (1.00 video frame)
Interleave, preload duration : 500 ms

Скриншоты




Создавать темы 21-Сен-2015 15:39

[Профиль]  [ЛС] 
Показать сообщения:    
Ответить на тему

Текущее время: 13-Дек 20:05

Часовой пояс: UTC + 5



Вы не можете начинать темы
Вы не можете отвечать на сообщения
Вы не можете редактировать свои сообщения
Вы не можете удалять свои сообщения
Вы не можете голосовать в опросах
Вы не можете прикреплять файлы к сообщениям
Вы не можете скачивать файлы