Подстава / Жизнь и смерть Бобби Зи / The Death and Life of Bobby Z [2007, США, Боевик, драма, криминал, BDRip] (Dub)

Ответить на тему
 

FireHowler ®

Стаж: 4 года 6 месяцев

Сообщений: 270

Симпатии: 153

Подстава / Жизнь и смерть Бобби Зи / The Death and Life of Bobby Z - -Страна: США, Cheetah Vision, Emmett/Furla Films, Gunny Entertainment
Жанр: Боевик, драма, криминал
Год выпуска: 2007
Продолжительность: 01:24:54-Перевод: Профессиональный (дублированный)
Режиссер: Джон Херцфелд.-В ролях: Пол Уокер, Лоренс Фишбёрн, Оливия Уайлд, Джейсон Льюис, Джаррод Банч, Zoska Aleece, Richard Bairos, Рэймонд Дж. Бэрри, Майкл Бауэр, Ширли Бренер, Трой Бренна, Кейт Кэррадайн, Джина-Рай Картер, Хулио Кастильо, Ребекка Чейни, Адам П. Калтраро, Жоаким ди Алмейда, Пол Диаз,-Описание: Агент службы по борьбе с наркотиками Тэд Груза предлагает свободу заключенному вояке Тиму Кирни при одном условии - тот должен «сыграть» недавно умершего наркобарона Бобби Зи для выполнения одной спецоперации. Но всё идет не по плану: Тим сбегает, прихватив с собой шестилетнего сына Бобби Зи.-Качество видео: BDRip
Формат видео: AVI-Видео: 720x304 (2.37:1), 23.976 fps, XviD ~1998 kbps, 0.38 bit/pixel
Аудио: Русский: 48 kHz, AC3 Dolby Digital, 3/2 (L,C,R,l,r) + LFE ch, ~448.00 kbps-

MediaInfo

Format : AVI
Format/Info : Audio Video Interleave
File size : 1.45 GiB
Duration : 1h 32mn
Overall bit rate : 2 230 Kbps
Movie name : Подстава / Жизнь и смерть Бобби Зи / The Death and Life of Bobby Z (2007)
Director : SENATOR (Credits: PRoDJi )
Writing application : VirtualDubMod 1.5.10.2 (build 2540/release)
Copyright : HQ-ViDEO (www.hq-video.ru)
Comment : 8.09.2008
Video
ID : 0
Format : MPEG-4 Visual
Format profile : Advanced [email protected]
Format settings, BVOP : 2
Format settings, QPel : No
Format settings, GMC : No warppoints
Format settings, Matrix : Custom
Codec ID : XVID
Codec ID/Hint : XviD
Duration : 1h 32mn
Bit rate : 1 772 Kbps
Width : 720 pixels
Height : 304 pixels
Display aspect ratio : 2.35:1
Frame rate : 25.000 fps
Original frame rate : 23.976 fps
Color space : YUV
Chroma subsampling : 4:2:0
Bit depth : 8 bits
Scan type : Progressive
Compression mode : Lossy
Bits/(Pixel*Frame) : 0.324
Stream size : 1.15 GiB (79%)
Writing library : XviD 1.2.0.dev47 (UTC 2006-11-01)
Audio
ID : 1
Format : AC-3
Format/Info : Audio Coding 3
Mode extension : CM (complete main)
Format settings, Endianness : Big
Codec ID : 2000
Duration : 1h 32mn
Bit rate mode : Constant
Bit rate : 448 Kbps
Channel(s) : 6 channels
Channel positions : Front: L C R, Side: L R, LFE
Sampling rate : 48.0 KHz
Compression mode : Lossy
Delay relative to video : 1s 500ms
Stream size : 298 MiB (20%)
Alignment : Split accross interleaves
Interleave, duration : 40 ms (1.00 video frame)

Скриншоты








Последний раз редактировалось: FireHowler (2015-12-05 13:50), всего редактировалось 1 раз

Создавать темы 21-Сен-2015 21:45

[Профиль]  [ЛС] 

Топик был перенесен из форума Фильмы за 2010-2013 в форум Фильмы до 2010
Страх

Создавать темы 05-Дек-2015 13:50

 
Показать сообщения:    
Ответить на тему

Текущее время: 22-Ноя 17:47

Часовой пояс: UTC + 5



Вы не можете начинать темы
Вы не можете отвечать на сообщения
Вы не можете редактировать свои сообщения
Вы не можете удалять свои сообщения
Вы не можете голосовать в опросах
Вы не можете прикреплять файлы к сообщениям
Вы не можете скачивать файлы