Пойманный в раю / Trapped in Paradise (Джордж Галло / George Gallo) [1994, США, Комедия, Приключения, Мелодрама, DVDRip] (MVO)

Ответить на тему
 

akmal-19-66 ®

Стаж: 2 года 5 месяцев

Сообщений: 23

Симпатии: 120

Пойманный в раю / Trapped in Paradise
Страна: США
Жанр: Комедия, Приключения, Мелодрама
Год выпуска: 1994
Продолжительность: 01:51:20-Перевод: Многоголосый закадровый + Гаврилов + Оригинал
Cубтитры: нет
Режиссер: Джордж Галло / George Gallo-В ролях: Николас Кейдж /Nicolas Cage/, Джон Ловитц /Jon Lovitz/, Дэйна Карви /Dana Carvey/, Мадхен Амик /Madchen Amick/, Флоренс Стэнли /Florence Stanley/, Доналд Моффэт /Donald Moffat-Описание: Маленький провинциальный городок под названием "Рай", канун Рождества. Бил Фирпо, человек честный, приезжает сюда по делу с двумя только что вышедшими из тюрьмы братьями - хитрецом Дэйвом и клептоманом Элвином. Когда братья решают ограбить местный банк, Билу не удается их отговорить. К тому же дело на редкость простое и "верное": в здании отсутствует охрана и сигнализация. И, как ни странно, затея удается. Но сразу же возникает проблема посерьезней: как выбраться из маленького городка с большой добычей, если полиция уже поднята на ноги?..-IMDB-рейтинг: 5.6/10 4,760 votes »
Дата мировой премьеры: 2 декабря 1994
Дата выхода DVD релиза: 28 января 2010, «Двадцатый Век Фокс СНГ»
сборы в США $6 017 509 -Качество видео: DVDRip
Формат видео: AVI
Видео: Xvid 720x304 23.98fps
Аудио: 48 kHz, MPEG Layer 3, 2 ch, ~128.00 kbps avg.. Многоголосый закадровый
Аудио 2: 48 kHz, MPEG Layer 3, 2 ch, ~128.00 kbps avg.. Перевод Гаврилова
Аудио 3: 48 kHz, MPEG Layer 3, 2 ch, ~128.00 kbps avg.. Оригинальная английская

MediaInfo

General
Complete name : D:\Torrent\upload\В раю, как в ловушке\V.raju.kak.v.lovushke.1994.(RusProf,RusGavril,Eng).avi
Format : AVI
Format/Info : Audio Video Interleave
File size : 1.46 GiB
Duration : 1h 51mn
Overall bit rate : 1 872 Kbps
Movie name : В раю, как в ловушке / Trapped in Paradise (1994)
Copyright : HeDgEhOt®
Video
ID : 0
Format : MPEG-4 Visual
Format profile : Advanced [email protected]
Format settings, BVOP : Yes
Format settings, QPel : No
Format settings, GMC : No warppoints
Format settings, Matrix : Custom
Codec ID : XVID
Codec ID/Hint : XviD
Duration : 1h 51mn
Bit rate : 1 470 Kbps
Width : 720 pixels
Height : 304 pixels
Display aspect ratio : 2.35:1
Frame rate : 23.976 fps
Color space : YUV
Chroma subsampling : 4:2:0
Bit depth : 8 bits
Scan type : Progressive
Bits/(Pixel*Frame) : 0.280
Stream size : 1.14 GiB (79%)
Writing library : XviD 1.2.1 (UTC 2008-12-04)
Audio #1
ID : 1
Format : MPEG Audio
Format version : Version 1
Format profile : Layer 3
Mode : Joint stereo
Mode extension : MS Stereo
Codec ID : 55
Codec ID/Hint : MP3
Duration : 1h 51mn
Bit rate mode : Constant
Bit rate : 128 Kbps
Channel(s) : 2 channels
Sampling rate : 48.0 KHz
Stream size : 102 MiB (7%)
Alignment : Aligned on interleaves
Interleave, duration : 42 ms (1.00 video frame)
Interleave, preload duration : 504 ms
Language : / /
Audio #2
ID : 2
Format : MPEG Audio
Format version : Version 1
Format profile : Layer 3
Mode : Joint stereo
Mode extension : MS Stereo
Codec ID : 55
Codec ID/Hint : MP3
Duration : 1h 51mn
Bit rate mode : Constant
Bit rate : 128 Kbps
Channel(s) : 2 channels
Sampling rate : 48.0 KHz
Stream size : 102 MiB (7%)
Alignment : Aligned on interleaves
Interleave, duration : 42 ms (1.00 video frame)
Interleave, preload duration : 504 ms
Audio #3
ID : 3
Format : MPEG Audio
Format version : Version 1
Format profile : Layer 3
Mode : Joint stereo
Mode extension : MS Stereo
Codec ID : 55
Codec ID/Hint : MP3
Duration : 1h 51mn
Bit rate mode : Constant
Bit rate : 128 Kbps
Channel(s) : 2 channels
Sampling rate : 48.0 KHz
Stream size : 102 MiB (7%)
Alignment : Aligned on interleaves
Interleave, duration : 42 ms (1.00 video frame)
Interleave, preload duration : 504 ms

Скриншоты

Создавать темы 22-Сен-2015 08:07

[Профиль]  [ЛС] 
Показать сообщения:    
Ответить на тему

Текущее время: 24-Окт 10:36

Часовой пояс: UTC + 5



Вы не можете начинать темы
Вы не можете отвечать на сообщения
Вы не можете редактировать свои сообщения
Вы не можете удалять свои сообщения
Вы не можете голосовать в опросах
Вы не можете прикреплять файлы к сообщениям
Вы не можете скачивать файлы