Питер-Москва (Новогодний рейс) / Серии: 4 из 4 (Саша Кириенко) [2014, Лирическая комедия, SATRip]

Ответить на тему
 

Sunnat1999 ®

Стаж: 4 года 5 месяцев

Сообщений: 756

Симпатии: 416

Питер-Москва (Новогодний рейс)-- Год выпуска: 2014
Производство: Россия, Кинокомпания «Марс Мед
Жанр: Лирическая комедия
Продолжительность: 03:21:23
Субтитры: нет-Режиссёр: Саша Кириенко-В ролях: Евгений Стычкин, Наталья Романычева, Виктория Романенко, Марина Коняшкина, Анна Банщикова, Фёдор Лавров, Виталий Хаев, Владислав Ветров, Ольга Прокофьева, Дмитрий Астрахан, Александр Семчев, Екатерина Шевченко, Мариэтта Цигаль-Полищук, Александр Числов, Кристина Ларина-Описание: Денис, пилот корабля на рейсах Москва - Санкт-Петербург, без памяти влюбляется в Варю. Она кажется ему единственной и неповторимой, но неожиданно в Питере он встречает Эллу, которая ни в чем не уступает его возлюбленной из Москвы. Второй пилот Анна пытается помочь разобраться коллеге в его нелегком положении.-Доп. информация: 
-Качество: SATRip
Формат: AVI
Видео кодек: XviD
Аудио кодек: MP3
Видео: XviD ~ 1800 Кбит/с, 720x400
Аудио: MP3, 2 ch, 128 Кбит/с

MI

General
Complete name : \Piter.Moskva.SATRip\Piter.Moskva.01.SATRip..avi
Format : AVI
Format/Info : Audio Video Interleave
File size : 687 MiB
Duration : 49mn 33s
Overall bit rate : 1 938 Kbps
Writing application : VirtualDubMod 1.5.10.3 | www.virtualdub-fr.org || (build 2550/release)
Writing library : VirtualDubMod build 2550/release
Video
ID : 0
Format : MPEG-4 Visual
Format profile : Advanced [email protected]
Format settings, BVOP : 2
Format settings, QPel : No
Format settings, GMC : No warppoints
Format settings, Matrix : Default (MPEG)
Codec ID : XVID
Codec ID/Hint : XviD
Duration : 49mn 33s
Bit rate : 1 800 Kbps
Width : 720 pixels
Height : 400 pixels
Display aspect ratio : 16:9
Frame rate : 25.000 fps
Color space : YUV
Chroma subsampling : 4:2:0
Bit depth : 8 bits
Scan type : Progressive
Compression mode : Lossy
Bits/(Pixel*Frame) : 0.250
Stream size : 638 MiB (93%)
Writing library : XviD 1.2.1 (UTC 2008-12-04)
Audio
ID : 1
Format : MPEG Audio
Format version : Version 1
Format profile : Layer 3
Mode : Joint stereo
Mode extension : MS Stereo
Codec ID : 55
Codec ID/Hint : MP3
Duration : 49mn 33s
Bit rate mode : Constant
Bit rate : 128 Kbps
Channel(s) : 2 channels
Sampling rate : 48.0 KHz
Compression mode : Lossy
Stream size : 45.4 MiB (7%)
Alignment : Aligned on interleaves
Interleave, duration : 40 ms (1.00 video frame)
Interleave, preload duratio : 504 ms
Writing library : LAME3.99r
Encoding settings : -m j -V 4 -q 9 -lowpass 17 -b 128
Скриншоты


Последний раз редактировалось: Sunnat1999 (2015-10-26 08:35), всего редактировалось 2 раз(а)

Создавать темы 22-Сен-2015 08:31

[Профиль]  [ЛС] 
Показать сообщения:    
Ответить на тему

Текущее время: 17-Авг 22:38

Часовой пояс: UTC + 5



Вы не можете начинать темы
Вы не можете отвечать на сообщения
Вы не можете редактировать свои сообщения
Вы не можете удалять свои сообщения
Вы не можете голосовать в опросах
Вы не можете прикреплять файлы к сообщениям
Вы не можете скачивать файлы