Здравствуй и прощай / Eotteon annyeong / Some Kind of Hello / Another Parting [5 из 5] [2014, веб-драма, фэнтези, мелодрама, HDTVRip] [KOR+SUB] [RAW] [720p]

Ответить на тему
 

Jasur S ®

Стаж: 4 года 6 месяцев

Сообщений: 110

Симпатии: 111

Здравствуй и прощай / Eotteon annyeong / Some Kind of Hello
-

-
Год выпуска: 2014
Страна: Южная Корея
Жанр: фэнтези, мелодрама
Продолжительность: 5 серий длительностью (от 8-12 минут)
Перевод: Русские субтитры-Режиссер: Вон Тэ Ён-В ролях:
Со Ин Гук - Ан Ён Мо
Ван Чжи Вон - Со Ха На
Чхве Дэ Хун
О Чо Хи
Ли Ён Нё
Чхве Сон Мин-Описание: Когда уже ничего не держит на этом свете, то одна случайная встреча может все изменить... или нет?-Качество: HDTVRip
Формат: MPEG4
Видео кодек: AVC
Аудио кодек: AAC
Видео: MPEG4 Video (H264) 1280x720 29.97fps 1201kbps [Video]
Аудио: AAC 44100Hz stereo 191kbps [Audio]-

MediaInfo

General
Complete name : D:\Some Kind of Hello\Some Kind of Hello ep1.mp4
Format : MPEG-4
Format profile : Base Media / Version 2
Codec ID : mp42
File size : 103 MiB
Duration : 10mn 18s
Overall bit rate mode : Variable
Overall bit rate : 1 397 Kbps
Encoded date : UTC 2014-02-16 11:40:23
Tagged date : UTC 2014-02-16 11:40:23
gsst : 0
gstd : 618230
gssd : B4A7DDA06HH1392649919804060
gshh : r6---sn-4g57kuee.googlevideo.com
Video
ID : 1
Format : AVC
Format/Info : Advanced Video Codec
Format profile : [email protected]
Format settings, CABAC : Yes
Format settings, ReFrames : 1 frame
Codec ID : avc1
Codec ID/Info : Advanced Video Coding
Duration : 10mn 18s
Bit rate : 1 202 Kbps
Maximum bit rate : 4 491 Kbps
Width : 1 280 pixels
Height : 720 pixels
Display aspect ratio : 16:9
Frame rate mode : Constant
Frame rate : 29.970 fps
Color space : YUV
Chroma subsampling : 4:2:0
Bit depth : 8 bits
Scan type : Progressive
Bits/(Pixel*Frame) : 0.044
Stream size : 88.6 MiB (86%)
Tagged date : UTC 2014-02-16 11:40:26
Audio
ID : 2
Format : AAC
Format/Info : Advanced Audio Codec
Format profile : LC
Codec ID : 40
Duration : 10mn 18s
Bit rate mode : Variable
Bit rate : 192 Kbps
Maximum bit rate : 202 Kbps
Channel(s) : 2 channels
Channel positions : Front: L R
Sampling rate : 44.1 KHz
Compression mode : Lossy
Stream size : 14.1 MiB (14%)
Title : IsoMedia File Produced by Google, 5-11-2011
Encoded date : UTC 2014-02-16 11:40:25
Tagged date : UTC 2014-02-16 11:40:26

Скриншоты







Последний раз редактировалось: Jasur S (2015-10-02 16:50), всего редактировалось 2 раз(а)

Создавать темы 22-Сен-2015 11:48

[Профиль]  [ЛС] 

Jasur S ®

Стаж: 4 года 6 месяцев

Сообщений: 110

Симпатии: 111

Хоть это и мини дорама, но с очень глубоким смыслом) Мало когда корейцы радуют меня таким) Без любви чеболей и т.д.) Да и много времени не займет) Те кто скачают надеюсь оставите свои отзывы о дорамке)))

Создавать темы 22-Сен-2015 12:06

[Профиль]  [ЛС] 

Deviling

Стаж: 2 года 5 месяцев

Сообщений: 82

Симпатии: 136

952399Хоть это и мини дорама, но с очень глубоким смыслом) Мало когда корейцы радуют меня таким) Без любви чеболей и т.д.) Да и много времени не займет) Те кто скачают надеюсь оставите свои отзывы о дорамке)))
Посмотрела, ну как это без любви. как раз с любовью и еще какой))) Охмуренный сериал. всего то 5 серий по 10 минут, а аж мурашки по коже от просмотра, Она землянка разочаровавшаяся в любви, работе, дружбе пошедшая на отчаянный шаг и он пришелец не знающий что такое любовь...
Любителям дорам считаю эта просто обязательна к просмотру, красивая мини дорама, красивое музыкальное сопровождение ...думаю что потом...еще пересмотрю ее...а пересматриваю я крайне редко сериалы))
Спасибо огромное, что выложил сюда нам посмотреть)

Создавать темы 22-Сен-2015 20:52

[Профиль]  [ЛС] 

Jasur S ®

Стаж: 4 года 6 месяцев

Сообщений: 110

Симпатии: 111

952468
952399Хоть это и мини дорама, но с очень глубоким смыслом) Мало когда корейцы радуют меня таким) Без любви чеболей и т.д.) Да и много времени не займет) Те кто скачают надеюсь оставите свои отзывы о дорамке)))
Посмотрела, ну как это без любви. как раз с любовью и еще какой))) Охмуренный сериал. всего то 5 серий по 10 минут, а аж мурашки по коже от просмотра, Она землянка разочаровавшаяся в любви, работе, дружбе пошедшая на отчаянный шаг и он пришелец не знающий что такое любовь...
Любителям дорам считаю эта просто обязательна к просмотру, красивая мини дорама, красивое музыкальное сопровождение ...думаю что потом...еще пересмотрю ее...а пересматриваю я крайне редко сериалы))
Спасибо огромное, что выложил сюда нам посмотреть)
Без любви чеболей(я имел ввиду богачей)! А так порадовали с утра перед тренировкой)
-
И за пределами вечности если это судьба, то вы снова встретитесь...)

Создавать темы 23-Сен-2015 04:24

[Профиль]  [ЛС] 

Jasur S ®

Стаж: 4 года 6 месяцев

Сообщений: 110

Симпатии: 111

Доброго времени суток) В связи с тем, что у меня со следующей недели не будет свободного времени, попрошу тех людей которые уже полностью скачали оставаться в сидерах настолько долго насколько возможно) Думаю только по воскресеньям смогу оформлять релизы и оставаться в сидерах.)

Создавать темы 01-Окт-2015 19:43

[Профиль]  [ЛС] 
Показать сообщения:    
Ответить на тему

Текущее время: 21-Окт 06:18

Часовой пояс: UTC + 5



Вы не можете начинать темы
Вы не можете отвечать на сообщения
Вы не можете редактировать свои сообщения
Вы не можете удалять свои сообщения
Вы не можете голосовать в опросах
Вы не можете прикреплять файлы к сообщениям
Вы не можете скачивать файлы