Лучшая девушка Токио / Tokyo Zenryoku Shoujo [11/11] [2012, комедия, романтика, TVRip] [RAW] [480p]

Ответить на тему
 

Jasur S ®

Стаж: 4 года 6 месяцев

Сообщений: 110

Симпатии: 111

Лучшая девушка Токио / Tokyo Zenryoku Shoujo
-

-
Год выпуска: 2012
Страна: Япония
Жанр: комедия, романтика
Продолжительность: 11 серий по 45 минут, 1 серия ~58 минут
Перевод: Русские субтитры-Режиссер: Кубота Мицуру-В ролях:
Takei Emi в роли Саеки Урара
Miura Shohei - Тамагава Дайске
Higa Manami - Серизава Ханако
Ichikawa Yui - Окуно Фую
Mori Kanna - Кубо Харука
Aoki Ryuji - Симояма Коудзи
Shibuya Asuka - Ямамото Юкари / Удвал
Naito Risa - Кавабе Рёта
Lawrence Yumi - Джоана
Shimura Rena - Тамагава Мика
Sakai Ayane - Сакурай Хитоми
Horiuchi Keiko - Саеки Саюри (мама Урары )
Nukumizu Yoichi - Тамагава Шигеске
Tsukamoto Takashi - Сакурай Коити
Watabe Atsuro - Сузуки Такуя (папа Урары)-Описание: 19-ти летняя Саеки Урара (Такей Эми) приезжает в Токио. Отличительные черты её характера - жизнерадостность и дружелюбие, но чтобы она не делала, всё заканчивается "катастрофой" для окружающих её людей. Девушка приезжает в Токио без какой либо цели и мечты. Там она встречает своего отца Сузуки Такую (Ватабе Ацуро), бросившего её мать Саюри (Хориути Кэйко) 15-ть лет назад. Несмотря на то, что она против своего отца, но его "распутная жизнь" побуждает девушку к действию. Она твёрдо намерена заставить своего отца жениться на выбранной Урарой женщине. Девушка говорит: "Я во чтобы то ни стало сделаю отца счастливым, иначе я не смогу двигаться дальше!". Она начинает предпринимать попытки познакомить отца с хорошими, на её взгляд, женщинами, попутно попадая в различные ситуации, и сама не осознавая начинает менять людей, окружающих её.-Качество: TVRip
Формат: MPEG4
Видео кодек: AVC
Аудио кодек: AAC
Видео: MPEG4 Video (H264) 848x480 29.97fps 1126kbps [Video]
Аудио: AAC 44100Hz stereo 127kbps [Audio]
-

MediaInfo

General
Complete name : D:\Лучшая девушка Токио\[SoulmateSubS]Tokyo Zenryoku Shoujo.ep01.mp4
Format : MPEG-4
Format profile : Base Media
Codec ID : isom
File size : 519 MiB
Duration : 57mn 39s
Overall bit rate mode : Variable
Overall bit rate : 1 259 Kbps
Encoded date : UTC 2012-10-11 02:41:45
Tagged date : UTC 2012-10-11 02:41:45
Video
ID : 1
Format : AVC
Format/Info : Advanced Video Codec
Format profile : [email protected]
Format settings, CABAC : Yes
Format settings, ReFrames : 4 frames
Codec ID : avc1
Codec ID/Info : Advanced Video Coding
Duration : 57mn 39s
Bit rate : 1 127 Kbps
Maximum bit rate : 4 769 Kbps
Width : 848 pixels
Height : 480 pixels
Display aspect ratio : 16:9
Frame rate mode : Constant
Frame rate : 29.970 fps
Color space : YUV
Chroma subsampling : 4:2:0
Bit depth : 8 bits
Scan type : Progressive
Bits/(Pixel*Frame) : 0.092
Stream size : 465 MiB (89%)
Writing library : x264 core 125 r2200 999b753
Encoding settings : cabac=1 / ref=3 / deblock=1:0:0 / analyse=0x3:0x113 / me=hex / subme=7 / psy=1 / psy_rd=1.00:0.00 / mixed_ref=1 / me_range=16 / chroma_me=1 / trellis=1 / 8x8dct=1 / cqm=0 / deadzone=21,11 / fast_pskip=1 / chroma_qp_offset=-2 / threads=12 / lookahead_threads=2 / sliced_threads=0 / nr=0 / decimate=1 / interlaced=0 / bluray_compat=0 / constrained_intra=0 / bframes=3 / b_pyramid=2 / b_adapt=1 / b_bias=0 / direct=1 / weightb=1 / open_gop=0 / weightp=2 / keyint=300 / keyint_min=29 / scenecut=40 / intra_refresh=0 / rc_lookahead=40 / rc=crf / mbtree=1 / crf=21.0 / qcomp=0.60 / qpmin=0 / qpmax=69 / qpstep=4 / ip_ratio=1.40 / aq=1:1.00
Encoded date : UTC 2012-10-11 02:41:45
Tagged date : UTC 2012-10-11 02:41:50
Audio
ID : 2
Format : AAC
Format/Info : Advanced Audio Codec
Format profile : LC
Codec ID : 40
Duration : 57mn 39s
Bit rate mode : Variable
Bit rate : 128 Kbps
Maximum bit rate : 138 Kbps
Channel(s) : 2 channels
Channel positions : Front: L R
Sampling rate : 44.1 KHz
Compression mode : Lossy
Stream size : 52.8 MiB (10%)
Encoded date : UTC 2012-10-11 02:41:49
Tagged date : UTC 2012-10-11 02:41:50

Скриншоты




Создавать темы 22-Сен-2015 12:09

[Профиль]  [ЛС] 

Jasur S ®

Стаж: 4 года 6 месяцев

Сообщений: 110

Симпатии: 111

Сам еще не досмотрел но могу сказать, что дорамка веселая (как мне кажется для Японии редкость) и для тех кто хочет провести время приятно ) Скачивал только из за Эми)))

Создавать темы 22-Сен-2015 12:12

[Профиль]  [ЛС] 
Показать сообщения:    
Ответить на тему

Текущее время: 26-Сен 03:07

Часовой пояс: UTC + 5



Вы не можете начинать темы
Вы не можете отвечать на сообщения
Вы не можете редактировать свои сообщения
Вы не можете удалять свои сообщения
Вы не можете голосовать в опросах
Вы не можете прикреплять файлы к сообщениям
Вы не можете скачивать файлы