Оболтусы / Homies (Йон Картхаус / Jon Karthaus) [2015, Нидерланды, Комедия, криминал, DVDRip] (DVO : Lord32x Studio)

Ответить на тему
 

UZM ®

Стаж: 5 лет 3 месяца

Сообщений: 169

Симпатии: 189

Оболтусы / Homies
Страна: Нидерланды
Жанр: Комедия, криминал
Год выпуска: 2015
Продолжительность: 01:36:36
Перевод: Любительский (двухголосый закадровый) Доп. инфо о переводе Lord32x Studio
Cубтитры: нет
Режиссер: Йон Картхаус / Jon Karthaus
В ролях: Виктория Кобленко, Каролин Спор, Роберт де Хуг, Геза Вайз, Янник ван де Вельде, Мануэль Брукман, Дженнифер Хоффман, Чарли Дагелет, Гийс Нейбр, Синан Эроглу
Описание: Четверо взрослых, но упорно не желающих взрослеть друзей, живут вместе в одной квартире и придумывают разные безумные планы, как бы быстрее заработать много денег. Однажды они переходят дорогу русской мафии и оказываются должны бандитам миллион евро. Если они не найдут деньги за 7 дней, их разрежут на кусочки и скормят акулам в местном океанариуме. Это будет самая безумная неделя в их жизни.
Качество видео: DVDRip
Формат видео: AVI
Видео: Xvid 720x304 25fps 1712kbps
Аудио: Dolby AC3 48,0Hz 6ch 448kbps

MediaInfo

General
Complete name : F:\Кино\Homies.2015.DVDRip.1500MB.Lord32x.Studio.avi
Format : AVI
Format/Info : Audio Video Interleave
File size : 1.46 GiB
Duration : 1h 36mn
Overall bit rate : 2 171 Kbps
Writing application : VirtualDubMod 1.5.10.3 | www.virtualdub-fr.org || (build 2550/release)
Writing library : VirtualDubMod build 2550/release
Video
ID : 0
Format : MPEG-4 Visual
Format profile : Advanced [email protected]
Format settings, BVOP : 1
Format settings, QPel : No
Format settings, GMC : No warppoints
Format settings, Matrix : Default (H.263)
Codec ID : XVID
Codec ID/Hint : XviD
Duration : 1h 36mn
Bit rate : 1 713 Kbps
Width : 720 pixels
Height : 304 pixels
Display aspect ratio : 2.35:1
Frame rate : 25.000 fps
Color space : YUV
Chroma subsampling : 4:2:0
Bit depth : 8 bits
Scan type : Progressive
Compression mode : Lossy
Bits/(Pixel*Frame) : 0.313
Stream size : 1.16 GiB (79%)
Writing library : XviD 1.2.1 (UTC 2008-12-04)
Audio
ID : 1
Format : AC-3
Format/Info : Audio Coding 3
Mode extension : CM (complete main)
Format settings, Endianness : Big
Codec ID : 2000
Duration : 1h 36mn
Bit rate mode : Constant
Bit rate : 448 Kbps
Channel(s) : 6 channels
Channel positions : Front: L C R, Side: L R, LFE
Sampling rate : 48.0 KHz
Compression mode : Lossy
Stream size : 310 MiB (21%)
Alignment : Split accross interleaves
Interleave, duration : 40 ms (1.00 video frame)
Interleave, preload duration : 500 ms

Скриншот c названием фильма

Скриншоты

,
Ю


Последний раз редактировалось: UZM (2015-09-23 20:12), всего редактировалось 1 раз

Создавать темы 22-Сен-2015 21:46

[Профиль]  [ЛС] 

SkoroXod

Стаж: 2 года

Сообщений: 99

Симпатии: 78

Спасибо!
Прикольная комедия. Один раз посмотреть можно. В фильме много курьёзных моментов, заставляющих улыбнуться. Однако, хватает второсортного юмора, и низкосортного юмора ниже пояса, что в современных комедиях увы уже почти стало нормой. Если не обращать внимание на низкосортный юмор то комедия вполне себе тянет на 5,5 баллов из 10.

Создавать темы 22-Окт-2015 21:52

[Профиль]  [ЛС] 

zhozef

Стаж: 5 лет 8 месяцев

Сообщений: 35

Симпатии: 6

imdb 5.8

Создавать темы 26-Окт-2015 09:59

[Профиль]  [ЛС] 
Показать сообщения:    
Ответить на тему

Текущее время: 22-Сен 02:20

Часовой пояс: UTC + 5



Вы не можете начинать темы
Вы не можете отвечать на сообщения
Вы не можете редактировать свои сообщения
Вы не можете удалять свои сообщения
Вы не можете голосовать в опросах
Вы не можете прикреплять файлы к сообщениям
Вы не можете скачивать файлы