Игра Джокера / Joker Game (Ю Иреэ) [2015, Япония, триллер, боевик, HDRip]

Ответить на тему
 

repi12345 ®

Стаж: 2 года

Сообщений: 5

Симпатии: 1

Игра Джокера / Joker Game
Страна: Япония
Жанр: триллер, боевик
Год выпуска: 2015
Продолжительность: 01:48:20
Перевод: Любительский (многоголосый закадровый)
Cубтитры: нет
Режиссер: Ю Иреэ
В ролях: Кадзуя Каменаси, Юсукэ Исейа, Кёко Фукада, Ричард Шелтон, Джаспер Бэйг, Ричард Мосс, Раджид Ахамед, Майкл Л. Баш, Марк Чиннери, Стивен Дасс
Описание: В эпоху войн всегда были люди, само существование которых было стёрто из истории. Именно благодаря им войны разгорались сильнее или же, наоборот, останавливались. Эти люди — шпионы. Избавиться от собственных эмоций и заглушить чувства. Имея множество лиц, проникнуть в любую точку мира. Обмануть всех и достать то, что стремятся получить враги. Превратив войну в безжалостную игру, стать в ней единственным Джокером.
Азия, канун Второй Мировой войны. В наказание за проступок Като отправляют в школу шпионов "D-Kikan", которую основал лейтенант Юки. После обучения Като приступает к своему первому заданию: ему надо завладеть конфиденциальной "черной тетрадью". В ходе выполнения этого задания Като оказывается в неком городе, где ему приходится сражаться с Рин, шпионскими организациями Германии, Советского Союза и США, и даже противостоять армии Японии.
Качество видео: HDRip
Формат видео: AVI
Видео: XviD, 1638 Кбит/с, 720x304
Аудио: АС3, 2 ch, 192 Кбит/с

MediaInfo

Общее
Полное имя : Joker.Game.2015.HDRip.1400MB.avi
Формат : AVI
Формат/Информация : Audio Video Interleave
Размер файла : 1,39 Гбайт
Продолжительность : 1 ч. 48 м.
Общий поток : 1840 Кбит/сек
Программа кодирования : VirtualDubMod 1.5.10.2 (build 2540/release)
Библиотека кодирования : VirtualDubMod build 2540/release
Видео
Идентификатор : 0
Формат : MPEG-4 Visual
Профиль формата : Advanced [email protected]
Параметр BVOP формата : 2
Параметр QPel формата : Нет
Параметр GMC формата : Без точки перехода
Параметр матрицы формата : Default (MPEG)
Режим смешивания : Сжатый битовый поток
Идентификатор кодека : XVID
Идентификатор кодека/Подсказка : XviD
Продолжительность : 1 ч. 48 м.
Битрейт : 1638 Кбит/сек
Ширина : 720 пикселей
Высота : 304 пикселя
Соотношение сторон : 2,35:1
Частота кадров : 23,976 кадра/сек
Цветовое пространство : YUV
Субдискретизация насыщенности : 4:2:0
Битовая глубина : 8 бит
Тип развёртки : Прогрессивная
Метод сжатия : С потерями
Бит/(Пиксели*Кадры) : 0.312
Размер потока : 1,24 Гбайт (89%)
Библиотека кодирования : XviD 64
Аудио
Идентификатор : 1
Формат : AC-3
Формат/Информация : Audio Coding 3
Расширение режима : CM (complete main)
Параметр Endianness формата : Big
Идентификатор кодека : 2000
Продолжительность : 1 ч. 48 м.
Вид битрейта : Постоянный
Битрейт : 192 Кбит/сек
Каналы : 2 канала
Расположение каналов : Front: L R
Частота : 48,0 КГц
Метод сжатия : С потерями
Размер потока : 149 Мбайт (10%)
Выравнивание : Разделение по промежуткам
Продолжительность промежутка : 42 мс. (1,00 видеокадр)
Время предзагрузки промежутка : 500 мс.

Скриншоты



Последний раз редактировалось: repi12345 (2015-09-23 18:11), всего редактировалось 1 раз

Создавать темы 22-Сен-2015 21:57

[Профиль]  [ЛС] 

Топик был перенесен из форума Фильмы за 2015 в форум Азиатские фильмы
Каротажник

Создавать темы 23-Сен-2015 18:10

 

repi12345 ®

Стаж: 2 года

Сообщений: 5

Симпатии: 1

кому понравилась игра

Создавать темы 24-Сен-2015 13:55

[Профиль]  [ЛС] 

repi12345 ®

Стаж: 2 года

Сообщений: 5

Симпатии: 1

неблагодарные люди

Создавать темы 25-Сен-2015 13:09

[Профиль]  [ЛС] 
Показать сообщения:    
Ответить на тему

Текущее время: 20-Сен 05:26

Часовой пояс: UTC + 5



Вы не можете начинать темы
Вы не можете отвечать на сообщения
Вы не можете редактировать свои сообщения
Вы не можете удалять свои сообщения
Вы не можете голосовать в опросах
Вы не можете прикреплять файлы к сообщениям
Вы не можете скачивать файлы