Герои шестицветия / Rokka no Yuusha (Такахаси Такэо) [TV] [Без хардсаба] [01-12 из 12] [RUS] [2015г., приключения, фэнтези, детектив HDTV-Rip] [720p]

Ответить на тему
 

SoluSoull ®

Стаж: 2 года 7 месяцев

Сообщений: 379

Симпатии: 452

Rokka no Yuusha
Герои шестицветия-Производство: Япония
Год выпуска: 2015
Жанр: приключения, фэнтези, детектив
Тип: ТВ (12 эп.), 25 мин.-Перевод:
Озвучка от Студийная Банда AD-Режиссёр: Такахаси Такэо
Автор оригинала: Ямагата Исио
Студия: Passione-Описание: Когда пробуждается могущественный демон, божество судьбы доверяет спасение мира избранным героям. Шесть воинов получают в свое распоряжение силу, достаточную для победы над врагом, и оказываются отмечены особым символом в виде цветка. Оказывается среди них и Адлет Мэйер – молодой человек, который называет себя сильнейшим в мире человеком, но в честном бою уступающий многим. Настоящая его сила заключается в мощном уме, способном чужие действия, найти выход почти из любой ситуации и перехитрить кого угодно.
Однако отправившись на встречу с другими пятью героями, Адлет оказывается в весьма сложном положении. На месте сбора оказываются не шесть, а семь человек, а значит, один из явившихся – самозванец, решивший затесаться в ряды героев со своей коварной целью. Пытаясь вычислить врага, герои поначалу подозревают Адлета, однако со временем им приходится пересмотреть свои умозаключения. Время идет, чужак удачно притворяется одним из своих, и герои понемногу начинают подозревать всех и каждого, поддаваясь паранойе и идя на поводу у врага.-Качество: HDTVrip \ Формат: Mp4
Тип видео: без хардсаба
Видео: AVC, 1280х720(16/9), 2 969 Kbps, 23.976fps, 8 bits
Аудио: AAC, 2 ch, 192кбит/с, 48000Hz-

Скриншоты


MI

General
Complete name : E:\Downloads\rokka no yuusha\[AniDub]_Rokka_no_Yuusha_[01]_[720p x264 AAC]_[ADStudio].mp4
Format : MPEG-4
Format profile : Base Media
Codec ID : isom
File size : 543 MiB
Duration : 23mn 59s
Overall bit rate mode : Variable
Overall bit rate : 3 165 Kbps
Encoded date : UTC 2015-07-12 21:58:44
Tagged date : UTC 2015-07-12 21:58:44
Writing application : Yamb 2.1.0.0 [http://yamb.unite-video.com]
Video
ID : 1
Format : AVC
Format/Info : Advanced Video Codec
Format profile : [email protected]
Format settings, CABAC : Yes
Format settings, ReFrames : 4 frames
Codec ID : avc1
Codec ID/Info : Advanced Video Coding
Duration : 23mn 59s
Bit rate : 2 969 Kbps
Maximum bit rate : 17.9 Mbps
Width : 1 280 pixels
Height : 720 pixels
Display aspect ratio : 16:9
Frame rate mode : Constant
Frame rate : 23.976 fps
Color space : YUV
Chroma subsampling : 4:2:0
Bit depth : 8 bits
Scan type : Progressive
Bits/(Pixel*Frame) : 0.134
Stream size : 510 MiB (94%)
Title : 264
Writing library : x264 core 129 r2245+729M 1a52e03
Encoding settings : cabac=1 / ref=4 / deblock=1:1:-1 / analyse=0x3:0x113 / me=umh / subme=9 / psy=1 / fade_compensate=0.00 / psy_rd=1.00:0.00 / mixed_ref=1 / me_range=24 / chroma_me=1 / trellis=2 / 8x8dct=1 / cqm=0 / deadzone=21,11 / fast_pskip=1 / chroma_qp_offset=-2 / threads=8 / lookahead_threads=1 / sliced_threads=0 / nr=0 / decimate=1 / interlaced=0 / bluray_compat=0 / constrained_intra=0 / fgo=0 / bframes=9 / b_pyramid=2 / b_adapt=2 / b_bias=0 / direct=1 / weightb=1 / open_gop=0 / weightp=2 / keyint=240 / keyint_min=24 / scenecut=40 / intra_refresh=0 / rc=crf / mbtree=0 / crf=18.5 / qcomp=0.72 / qpmin=0 / qpmax=69 / qpstep=4 / ip_ratio=1.40 / pb_ratio=1.30 / aq=1:0.85
Encoded date : UTC 2015-07-06 15:17:44
Tagged date : UTC 2015-07-12 21:58:50
Color primaries : BT.709
Transfer characteristics : BT.709
Matrix coefficients : BT.709
Color range : Limited
Audio
ID : 2
Format : AAC
Format/Info : Advanced Audio Codec
Format profile : LC
Codec ID : 40
Duration : 23mn 59s
Bit rate mode : Variable
Bit rate : 192 Kbps
Maximum bit rate : 196 Kbps
Channel(s) : 2 channels
Channel positions : Front: L R
Sampling rate : 48.0 KHz
Compression mode : Lossy
Stream size : 33.0 MiB (6%)
Language : Russian
Encoded date : UTC 2015-07-12 21:58:50
Tagged date : UTC 2015-07-12 21:58:50

Отличия

другая озвучка + отсутствие яп дорожки
https://tas-ix.net/viewtopic.php?t=107592


Последний раз редактировалось: SoluSoull (2015-10-03 19:42), всего редактировалось 2 раз(а)

Создавать темы 23-Сен-2015 13:14

[Профиль]  [ЛС] 

SoluSoull ®

Стаж: 2 года 7 месяцев

Сообщений: 379

Симпатии: 452

всё

Создавать темы 03-Окт-2015 10:04

[Профиль]  [ЛС] 

SoluSoull ®

Стаж: 2 года 7 месяцев

Сообщений: 379

Симпатии: 452

история супер, концовка ваще жесть

Создавать темы 03-Окт-2015 12:42

[Профиль]  [ЛС] 

krocki

Стаж: 2 года 6 месяцев

Сообщений: 57

Симпатии: 1

SoluSoull, Да ну...тогда качнуть надо и по зыркать!

Создавать темы 03-Окт-2015 14:20

[Профиль]  [ЛС] 

Топик был перенесен из форума Аниме онгоинги в форум HD, HDTVRip
[email protected]

Создавать темы 03-Окт-2015 19:43

 
Показать сообщения:    
Ответить на тему

Текущее время: 23-Окт 07:39

Часовой пояс: UTC + 5



Вы не можете начинать темы
Вы не можете отвечать на сообщения
Вы не можете редактировать свои сообщения
Вы не можете удалять свои сообщения
Вы не можете голосовать в опросах
Вы не можете прикреплять файлы к сообщениям
Вы не можете скачивать файлы