Принц Персии: Пески времени / Prince of Persia: The Sands of Time (Майк Ньюэлл) [2010, США, фэнтези, боевик, мелодрама, приключения, HDRip] (Dub) (Original Rus)

Ответить на тему
 

Altair01 ®

Стаж: 2 года 3 месяца

Сообщений: 3

Принц Персии: Пески времени / Prince of Persia: The Sands of Time
Страна: США
Жанр: фэнтези, боевик, мелодрама, приключения
Год выпуска: 2010
Продолжительность: 01:55:53
ar Перевод: Профессиональный (дублированный)
Cубтитры: нет
Оригинальная аудиодорожка: русский
ay Режиссер: Майк Ньюэлл
В ролях: Джейк Джилленхол, Джемма Артертон, Бен Кингсли, Альфред Молина, Стив Туссэн, Тоби Кеббелл, Ричард Койл, Рональд Пикап, Рис Ричи, Гисли Орн Гардарссон
Описание: Главный герой этой экранизации культовой компьютерной игры, юный принц Дастан всегда побеждал врагов в бою, но потерял королевство из-за козней коварного царедворца. Теперь Дастану предстоит похитить из рук злодеев могущественный магический артефакт, способный повернуть время вспять и сделать своего владельца властелином мира. Помочь одолеть врагов Дастану помогут его блестящие навыки владения холодным оружием, а также недюжинные способности к акробатике и эквилибристике. …
Доп. информация: «Принц Персии: Пески времени» — кинофильм, приключенческий боевик режиссёра Майка Ньюэлла, основанный на одноименной компьютерной игре компании Ubisoft. Мировая премьера прошла 28 мая 2010 года, на российские экраны фильм вышел 27 мая 2010 года
Качество видео: HDRip
Формат видео: MP4
Видео: 1280 x 544 (2.35:1), 23.976 fps, AVC (х264) [email protected], ~ 2569 Kbps, 0.154 bit/pixel
Аудио: Русский 48 kHz, AC3 Dolby Digital, 3/2 (L,C,R,l,r) + LFE ch, ~448 kbps avg
Аудио 2: Русский 48 kHz, AC3 Dolby Digital, 3/2 (L,C,R,l,r) + LFE ch, ~448 kbps avg
Формат субтитров: softsub (SRT)

MediaInfo

General
Unique ID : 188294254142381830430665442014359651924 (0x8DA8277C54AEDF068699F460463F0654)
Complete name : F:\Princ.Persii.2010.HDRip-AVC.H.264.2,80 Gb.RG.Films.mkv
Format : Matroska
Format version : Version 2
File size : 2.80 GiB
Duration : 1h 55mn
Overall bit rate : 3 465 Kbps
Encoded date : UTC 2013-12-16 02:00:15
Writing application : mkvmerge v5.8.0 ('No Sleep / Pillow') built on Sep 2 2012 15:37:04
Writing library : libebml v1.2.3 + libmatroska v1.3.0
Video
ID : 1
Format : AVC
Format/Info : Advanced Video Codec
Format profile : [email protected]
Format settings, CABAC : Yes
Format settings, ReFrames : 8 frames
Muxing mode : Header stripping
Codec ID : V_MPEG4/ISO/AVC
Duration : 1h 55mn
Bit rate : 2 569 Kbps
Width : 1 280 pixels
Height : 544 pixels
Display aspect ratio : 2.35:1
Frame rate mode : Constant
Frame rate : 23.976 fps
Color space : YUV
Chroma subsampling : 4:2:0
Bit depth : 8 bits
Scan type : Progressive
Bits/(Pixel*Frame) : 0.154
Stream size : 2.02 GiB (72%)
Writing library : x264 core 125 r2208 d9d2288
Encoding settings : cabac=1 / ref=8 / deblock=1:-1:-1 / analyse=0x3:0x133 / me=umh / subme=11 / psy=1 / psy_rd=1.00:0.10 / mixed_ref=1 / me_range=24 / chroma_me=1 / trellis=2 / 8x8dct=1 / cqm=0 / deadzone=21,11 / fast_pskip=0 / chroma_qp_offset=-3 / threads=12 / lookahead_threads=2 / sliced_threads=0 / nr=0 / decimate=1 / interlaced=0 / bluray_compat=0 / constrained_intra=0 / bframes=3 / b_pyramid=2 / b_adapt=2 / b_bias=0 / direct=3 / weightb=1 / open_gop=0 / weightp=2 / keyint=250 / keyint_min=23 / scenecut=40 / intra_refresh=0 / rc_lookahead=50 / rc=2pass / mbtree=1 / bitrate=2569 / ratetol=1.0 / qcomp=0.60 / qpmin=0 / qpmax=69 / qpstep=4 / cplxblur=20.0 / qblur=0.5 / ip_ratio=1.40 / aq=1:1.00
Default : Yes
Forced : No
Audio #1
ID : 2
Format : AC-3
Format/Info : Audio Coding 3
Mode extension : CM (complete main)
Format settings, Endianness : Big
Muxing mode : Header stripping
Codec ID : A_AC3
Duration : 1h 55mn
Bit rate mode : Constant
Bit rate : 448 Kbps
Channel(s) : 6 channels
Channel positions : Front: L C R, Side: L R, LFE
Sampling rate : 48.0 KHz
Bit depth : 16 bits
Compression mode : Lossy
Stream size : 371 MiB (13%)
Default : Yes
Forced : No
Audio #2
ID : 3
Format : AC-3
Format/Info : Audio Coding 3
Mode extension : CM (complete main)
Format settings, Endianness : Big
Muxing mode : Header stripping
Codec ID : A_AC3
Duration : 1h 55mn
Bit rate mode : Constant
Bit rate : 448 Kbps
Channel(s) : 6 channels
Channel positions : Front: L C R, Side: L R, LFE
Sampling rate : 48.0 KHz
Bit depth : 16 bits
Compression mode : Lossy
Stream size : 371 MiB (13%)
Default : No
Forced : No
Text
ID : 4
Format : UTF-8
Codec ID : S_TEXT/UTF8
Codec ID/Info : UTF-8 Plain Text
Default : Yes
Forced : No

Скриншот c названием фильма

Скриншоты



bp

Создавать темы 24-Сен-2015 12:34

[Профиль]  [ЛС] 

Altair01 ®

Стаж: 2 года 3 месяца

Сообщений: 3

раздача нон стоп

Создавать темы 13-Окт-2015 21:15

[Профиль]  [ЛС] 
Показать сообщения:    
Ответить на тему

Текущее время: 19-Ноя 11:49

Часовой пояс: UTC + 5



Вы не можете начинать темы
Вы не можете отвечать на сообщения
Вы не можете редактировать свои сообщения
Вы не можете удалять свои сообщения
Вы не можете голосовать в опросах
Вы не можете прикреплять файлы к сообщениям
Вы не можете скачивать файлы