Формула 1. Сезон 2005 г. Гонки (19 этапов из 19) ["Premiere", "РТР-Спорт", "ITV", "SF2", "TSI2", "Eurosport"] SATRip, TVRip

Ответить на тему
 

M.J. ®

Стаж: 4 года 2 месяца

Сообщений: 25

Симпатии: 8

Формула 1. Сезон 2005 г.
-Год выпуска: 2005
Вид спорта: Формула 1
Участники: Пилоты королевских гонок
Продолжительность: 19 этапов
Комментарий: Профессиональный
Язык комментариев: русский (А. Попов)
Описание: Все этапы Чемпионата Мира в классе автогонок Формула-1 2005-го года
Качество: SATRip, TVRip
Канал: Premiere, РТР-Спорт, ITV, SF2, TSI2, Eurosport-

Этап 1. 06.03.2005. Гран При Австралии, Мельбурн

-File size: 1848.44 MBytes (1 938 228 778 Bytes)
Duration: 02:04:39.701
Overall bitrate: 2073 Kbps
Video: 720x576 (4:3) @ 768x576, 25.000 fps, AVC
Audio: Russian, 48.0 KHz, AAC LC, 2 ch-

Media Info


General
Unique ID : 171976259619264824145954231092298720566 (0x81616C3D6FB9FEC692115EE78CBD2536)
Format : Matroska
Format version : Version 4 / Version 2
File size : 1.81 GiB
Duration : 2h 4mn
Overall bit rate : 2 073 Kbps
Movie name : 2005 Foster's Australian Grand Prix round 1 ru
Encoded date : UTC 2014-11-29 11:40:37
Writing application : mkvmerge v7.2.0 ('On Every Street') 64bit built on Sep 13 2014 15:52:10
Writing library : libebml v1.3.0 + libmatroska v1.4.1
DURATION : 02:04:39.701000000
NUMBER_OF_FRAMES : 350611
NUMBER_OF_BYTES : 119675370
_STATISTICS_WRITING_APP : mkvmerge v7.2.0 ('On Every Street') 64bit built on Sep 13 2014 15:52:10
_STATISTICS_WRITING_DATE_UTC : 2014-11-29 11:40:37
_STATISTICS_TAGS : BPS DURATION NUMBER_OF_FRAMES NUMBER_OF_BYTES
Video
ID : 1
Format : AVC
Format/Info : Advanced Video Codec
Format profile : [email protected]
Format settings, CABAC : Yes
Format settings, ReFrames : 3 frames
Codec ID : V_MPEG4/ISO/AVC
Duration : 2h 4mn
Nominal bit rate : 1 943 Kbps
Width : 720 pixels
Height : 576 pixels
Display aspect ratio : 4:3
Frame rate mode : Constant
Frame rate : 25.000 fps
Standard : PAL
Color space : YUV
Chroma subsampling : 4:2:0
Bit depth : 8 bits
Scan type : Progressive
Bits/(Pixel*Frame) : 0.187
Writing library : x264 core 129 r2245 bc13772
Encoding settings : cabac=1 / ref=2 / deblock=1:0:0 / analyse=0x3:0x113 / me=hex / subme=7 / psy=1 / psy_rd=1.00:0.00 / mixed_ref=1 / me_range=16 / chroma_me=1 / trellis=1 / 8x8dct=1 / cqm=0 / deadzone=21,11 / fast_pskip=1 / chroma_qp_offset=-2 / threads=6 / lookahead_threads=1 / sliced_threads=0 / nr=0 / decimate=1 / interlaced=fake / bluray_compat=0 / constrained_intra=1 / bframes=3 / b_pyramid=1 / b_adapt=1 / b_bias=0 / direct=1 / weightb=1 / open_gop=0 / weightp=2 / keyint=250 / keyint_min=25 / scenecut=40 / intra_refresh=0 / rc_lookahead=40 / rc=2pass / mbtree=1 / bitrate=1943 / ratetol=1.0 / qcomp=0.60 / qpmin=0 / qpmax=69 / qpstep=4 / cplxblur=20.0 / qblur=0.5 / ip_ratio=1.40 / aq=1:1.00
Language : English
Default : Yes
Forced : No
Audio
ID : 2
Format : AAC
Format/Info : Advanced Audio Codec
Format profile : LC
Codec ID : A_AAC
Duration : 2h 4mn
Channel(s) : 2 channels
Channel positions : Front: L R
Sampling rate : 48.0 KHz
Compression mode : Lossy
Language : Russian
Default : Yes
Forced : No
-

Этап 2. 20.03.2005. Гран При Малайзии, Сепанг

-File size: 1847.02 MBytes (1 936 735 907 Bytes)
Duration: 01:59:09.290
Overall bitrate: 2167 Kbps
Video: 720x576 (4:3) @ 768x576, 25.000 fps, AVC
Audio: Russian, 48.0 KHz, AAC LC, 2 ch-

Media Info


General
Unique ID : 225074709147782660130381114015961164762 (0xA953CFECCF9166FE92FC6F1CDF91ABDA)
Format : Matroska
Format version : Version 4 / Version 2
File size : 1.80 GiB
Duration : 1h 59mn
Overall bit rate : 2 167 Kbps
Movie name : 2005 Petronas Malaysian Grand Prix round 2 ru
Encoded date : UTC 2014-11-29 11:42:56
Writing application : mkvmerge v7.2.0 ('On Every Street') 64bit built on Sep 13 2014 15:52:10
Writing library : libebml v1.3.0 + libmatroska v1.4.1
DURATION : 01:59:09.290000000
NUMBER_OF_FRAMES : 335123
NUMBER_OF_BYTES : 114388708
_STATISTICS_WRITING_APP : mkvmerge v7.2.0 ('On Every Street') 64bit built on Sep 13 2014 15:52:10
_STATISTICS_WRITING_DATE_UTC : 2014-11-29 11:42:56
_STATISTICS_TAGS : BPS DURATION NUMBER_OF_FRAMES NUMBER_OF_BYTES
Video
ID : 1
Format : AVC
Format/Info : Advanced Video Codec
Format profile : [email protected]
Format settings, CABAC : Yes
Format settings, ReFrames : 3 frames
Codec ID : V_MPEG4/ISO/AVC
Duration : 1h 59mn
Nominal bit rate : 2 037 Kbps
Width : 720 pixels
Height : 576 pixels
Display aspect ratio : 4:3
Frame rate mode : Constant
Frame rate : 25.000 fps
Standard : PAL
Color space : YUV
Chroma subsampling : 4:2:0
Bit depth : 8 bits
Scan type : Progressive
Bits/(Pixel*Frame) : 0.196
Writing library : x264 core 129 r2245 bc13772
Encoding settings : cabac=1 / ref=2 / deblock=1:0:0 / analyse=0x3:0x113 / me=hex / subme=7 / psy=1 / psy_rd=1.00:0.00 / mixed_ref=1 / me_range=16 / chroma_me=1 / trellis=1 / 8x8dct=1 / cqm=0 / deadzone=21,11 / fast_pskip=1 / chroma_qp_offset=-2 / threads=6 / lookahead_threads=1 / sliced_threads=0 / nr=0 / decimate=1 / interlaced=fake / bluray_compat=0 / constrained_intra=1 / bframes=3 / b_pyramid=1 / b_adapt=1 / b_bias=0 / direct=1 / weightb=1 / open_gop=0 / weightp=2 / keyint=250 / keyint_min=25 / scenecut=40 / intra_refresh=0 / rc_lookahead=40 / rc=2pass / mbtree=1 / bitrate=2037 / ratetol=1.0 / qcomp=0.60 / qpmin=0 / qpmax=69 / qpstep=4 / cplxblur=20.0 / qblur=0.5 / ip_ratio=1.40 / aq=1:1.00
Language : English
Default : Yes
Forced : No
Audio
ID : 2
Format : AAC
Format/Info : Advanced Audio Codec
Format profile : LC
Codec ID : A_AAC
Duration : 1h 59mn
Channel(s) : 2 channels
Channel positions : Front: L R
Sampling rate : 48.0 KHz
Compression mode : Lossy
Language : Russian
Default : Yes
Forced : No
-

Этап 3. 30.04.2005. Гран При Бахрейна, Сахир

-FileSize: 1386.95 Mb ( 1 454 323 712 bytes )
Play length: 01:43:40.200 (155505 frames)
Video: 640x480 (1.33:1), 25 fps, XviD Final 1.0.3 (build 37) ~1732 kbps avg, 0.23 bit/pixel
Audio: 44.100 kHz, MPEG Layer 3, 2 ch, ~127.70 kbps avg-

Media Info


General
Format : AVI
Format/Info : Audio Video Interleave
File size : 1.35 GiB
Duration : 1h 43mn
Overall bit rate : 1 870 Kbps
Movie name : 2005 Gulf Air Bahrain Grand Prix round 3 ru
Writing application : VirtualDubMod 1.5.10.3 (build 2550/release)
Writing library : VirtualDubMod build 2550/release
Video
ID : 0
Format : MPEG-4 Visual
Format profile : Advanced [email protected]
Format settings, BVOP : 2
Format settings, QPel : No
Format settings, GMC : No warppoints
Format settings, Matrix : Default (H.263)
Muxing mode : Packed bitstream
Codec ID : XVID
Codec ID/Hint : XviD
Duration : 1h 43mn
Bit rate : 1 733 Kbps
Width : 640 pixels
Height : 480 pixels
Display aspect ratio : 4:3
Frame rate : 25.000 fps
Color space : YUV
Chroma subsampling : 4:2:0
Bit depth : 8 bits
Scan type : Progressive
Compression mode : Lossy
Bits/(Pixel*Frame) : 0.226
Stream size : 1.25 GiB (93%)
Writing library : XviD 1.0.3 (UTC 2004-12-20)
Audio
ID : 1
Format : MPEG Audio
Format version : Version 1
Format profile : Layer 3
Mode : Joint stereo
Codec ID : 55
Codec ID/Hint : MP3
Duration : 1h 43mn
Bit rate mode : Constant
Bit rate : 128 Kbps
Channel(s) : 2 channels
Sampling rate : 44.1 KHz
Compression mode : Lossy
Stream size : 94.7 MiB (7%)
Alignment : Split accross interleaves
Interleave, duration : 40 ms (1.00 video frame)
Interleave, preload duration : 500 ms
-

Этап 4. 24.04.2005. Гран При Сан-Марино, Имола

-File size: 1848.61 MBytes (1 938 407 183 Bytes)
Duration: 01:53:35.640
Overall bitrate: 2275 Kbps
Video: 720x576 (4:3) @ 768x576, 25.000 fps, AVC
Audio: Russian, 48.0 KHz, AAC LC, 2 ch-

Media Info


General
Unique ID : 238343892368492950381016573719478118757 (0xB34F5D2B00DAE596AA0BAF19F7ADA965)
Format : Matroska
Format version : Version 4 / Version 2
File size : 1.81 GiB
Duration : 1h 53mn
Overall bit rate : 2 275 Kbps
Movie name : 2005 25° Gran Premio Forster's di San Marino round 4 ru
Encoded date : UTC 2014-11-29 11:49:06
Writing application : mkvmerge v7.2.0 ('On Every Street') 64bit built on Sep 13 2014 15:52:10
Writing library : libebml v1.3.0 + libmatroska v1.4.1
DURATION : 01:53:35.637000000
NUMBER_OF_FRAMES : 319483
NUMBER_OF_BYTES : 109050266
_STATISTICS_WRITING_APP : mkvmerge v7.2.0 ('On Every Street') 64bit built on Sep 13 2014 15:52:10
_STATISTICS_WRITING_DATE_UTC : 2014-11-29 11:49:06
_STATISTICS_TAGS : BPS DURATION NUMBER_OF_FRAMES NUMBER_OF_BYTES
Video
ID : 1
Format : AVC
Format/Info : Advanced Video Codec
Format profile : [email protected]
Format settings, CABAC : Yes
Format settings, ReFrames : 3 frames
Codec ID : V_MPEG4/ISO/AVC
Duration : 1h 53mn
Nominal bit rate : 2 145 Kbps
Width : 720 pixels
Height : 576 pixels
Display aspect ratio : 4:3
Frame rate mode : Constant
Frame rate : 25.000 fps
Standard : PAL
Color space : YUV
Chroma subsampling : 4:2:0
Bit depth : 8 bits
Scan type : Progressive
Bits/(Pixel*Frame) : 0.207
Writing library : x264 core 129 r2245 bc13772
Encoding settings : cabac=1 / ref=2 / deblock=1:0:0 / analyse=0x3:0x113 / me=hex / subme=7 / psy=1 / psy_rd=1.00:0.00 / mixed_ref=1 / me_range=16 / chroma_me=1 / trellis=1 / 8x8dct=1 / cqm=0 / deadzone=21,11 / fast_pskip=1 / chroma_qp_offset=-2 / threads=6 / lookahead_threads=1 / sliced_threads=0 / nr=0 / decimate=1 / interlaced=fake / bluray_compat=0 / constrained_intra=1 / bframes=3 / b_pyramid=1 / b_adapt=1 / b_bias=0 / direct=1 / weightb=1 / open_gop=0 / weightp=2 / keyint=250 / keyint_min=25 / scenecut=40 / intra_refresh=0 / rc_lookahead=40 / rc=2pass / mbtree=1 / bitrate=2145 / ratetol=1.0 / qcomp=0.60 / qpmin=0 / qpmax=69 / qpstep=4 / cplxblur=20.0 / qblur=0.5 / ip_ratio=1.40 / aq=1:1.00
Language : English
Default : Yes
Forced : No
Audio
ID : 2
Format : AAC
Format/Info : Advanced Audio Codec
Format profile : LC
Codec ID : A_AAC
Duration : 1h 53mn
Channel(s) : 2 channels
Channel positions : Front: L R
Sampling rate : 48.0 KHz
Compression mode : Lossy
Language : Russian
Default : Yes
Forced : No
-

Этап 5. 08.05.2005. Гран При Испании, Каталунья-Монмело

-FileSize: 1385.24 Mb ( 1 452 533 760 bytes )
Play length: 01:37:32.399 (146310 frames)
Video: 640x480 (1.33:1), 25 fps, XviD Final 1.0.3 (build 37) ~1848 kbps avg, 0.24 bit/pixel
Audio: 44.100 kHz, MPEG Layer 3, 2 ch, ~127.70 kbps avg-

Media Info


General
Format : AVI
Format/Info : Audio Video Interleave
File size : 1.35 GiB
Duration : 1h 37mn
Overall bit rate : 1 986 Kbps
Movie name : 2005 49° Gran Premio Marlboro de Espana round 5 ru
Writing application : VirtualDubMod 1.5.10.3 (build 2550/release)
Writing library : VirtualDubMod build 2550/release
Video
ID : 0
Format : MPEG-4 Visual
Format profile : Advanced [email protected]
Format settings, BVOP : 1
Format settings, QPel : No
Format settings, GMC : No warppoints
Format settings, Matrix : Default (MPEG)
Muxing mode : Packed bitstream
Codec ID : XVID
Codec ID/Hint : XviD
Duration : 1h 37mn
Bit rate : 1 848 Kbps
Width : 640 pixels
Height : 480 pixels
Display aspect ratio : 4:3
Frame rate : 25.000 fps
Color space : YUV
Chroma subsampling : 4:2:0
Bit depth : 8 bits
Scan type : Progressive
Compression mode : Lossy
Bits/(Pixel*Frame) : 0.241
Stream size : 1.26 GiB (93%)
Writing library : XviD 1.0.3 (UTC 2004-12-20)
Audio
ID : 1
Format : MPEG Audio
Format version : Version 1
Format profile : Layer 3
Mode : Joint stereo
Codec ID : 55
Codec ID/Hint : MP3
Duration : 1h 37mn
Bit rate mode : Constant
Bit rate : 128 Kbps
Channel(s) : 2 channels
Sampling rate : 44.1 KHz
Compression mode : Lossy
Stream size : 89.1 MiB (6%)
Alignment : Split accross interleaves
Interleave, duration : 40 ms (1.00 video frame)
Interleave, preload duration : 500 ms
-

Этап 6. 22.05.2005. Гран При Монако, Монте-Карло

-File size: 3096.47 MBytes (3 246 881 914 Bytes)
Duration: 02:12:41.568
Overall bitrate: 3263 Kbps
Video: 704x576 (4:3) @ 768x576, 50.000 fps, AVC, ~3006 Kbps, 0.148 bits/pixel
Audio: Russian, 48.0 KHz, AC3, 2 ch, 192 Kbps-

Media Info


General
Unique ID : 172124160451558581211409209942390701942 (0x817DE8506337D909AF3C09AD254D7F76)
Format : Matroska
Format version : Version 4 / Version 2
File size : 3.02 GiB
Duration : 2h 12mn
Overall bit rate : 3 263 Kbps
Movie name : 2005 63 ͤ Grand Prix de Monaco round 6 ru
Encoded date : UTC 2014-11-29 12:00:56
Writing application : mkvmerge v7.2.0 ('On Every Street') 64bit built on Sep 13 2014 15:52:10
Writing library : libebml v1.3.0 + libmatroska v1.4.1
DURATION : 02:12:41.568000000
NUMBER_OF_FRAMES : 248799
NUMBER_OF_BYTES : 191077632
_STATISTICS_WRITING_APP : mkvmerge v7.2.0 ('On Every Street') 64bit built on Sep 13 2014 15:52:10
_STATISTICS_WRITING_DATE_UTC : 2014-11-29 12:00:56
_STATISTICS_TAGS : BPS DURATION NUMBER_OF_FRAMES NUMBER_OF_BYTES
Video
ID : 1
Format : AVC
Format/Info : Advanced Video Codec
Format profile : [email protected]
Format settings, CABAC : Yes
Format settings, ReFrames : 5 frames
Codec ID : V_MPEG4/ISO/AVC
Duration : 2h 12mn
Bit rate : 3 006 Kbps
Width : 704 pixels
Height : 576 pixels
Display aspect ratio : 4:3
Frame rate mode : Constant
Frame rate : 50.000 fps
Color space : YUV
Chroma subsampling : 4:2:0
Bit depth : 8 bits
Scan type : Progressive
Bits/(Pixel*Frame) : 0.148
Stream size : 2.79 GiB (92%)
Language : English
Default : No
Forced : No
DURATION : 02:12:41.540000000
NUMBER_OF_FRAMES : 398077
NUMBER_OF_BYTES : 3052626757
_STATISTICS_WRITING_APP : mkvmerge v7.2.0 ('On Every Street') 64bit built on Sep 13 2014 15:52:10
_STATISTICS_WRITING_DATE_UTC : 2014-11-29 12:00:56
_STATISTICS_TAGS : BPS DURATION NUMBER_OF_FRAMES NUMBER_OF_BYTES
Audio
ID : 2
Format : AC-3
Format/Info : Audio Coding 3
Mode extension : CM (complete main)
Format settings, Endianness : Big
Codec ID : A_AC3
Duration : 2h 12mn
Bit rate mode : Constant
Bit rate : 192 Kbps
Channel(s) : 2 channels
Channel positions : Front: L R
Sampling rate : 48.0 KHz
Compression mode : Lossy
Stream size : 182 MiB (6%)
Language : Russian
Default : Yes
Forced : No
-

Этап 7. 29.05.2005. Гран При Европы, Нюрбургринг

-File size: 3376.59 MBytes (3 540 612 972 Bytes)
Duration: 02:05:02.944
Overall bitrate: 3775 Kbps
Video: 704x576 (4:3) @ 768x576, 50.000 fps, AVC, ~3508 Kbps, 0.173 bits/pixel
Audio: Russian, 48.0 KHz, AC3, 2 ch, 192 Kbps-

Media Info


General
Unique ID : 243721237438100557535319980767070573260 (0xB75B00BFCAC5EBA99BFAD0073C4ED2CC)
Format : Matroska
Format version : Version 4 / Version 2
File size : 3.30 GiB
Duration : 2h 5mn
Overall bit rate : 3 775 Kbps
Movie name : 2005 Grand Prix of Europe round 7 ru
Encoded date : UTC 2014-11-29 12:04:08
Writing application : mkvmerge v7.2.0 ('On Every Street') 64bit built on Sep 13 2014 15:52:10
Writing library : libebml v1.3.0 + libmatroska v1.4.1
DURATION : 02:05:02.944000000
NUMBER_OF_FRAMES : 234467
NUMBER_OF_BYTES : 180070656
_STATISTICS_WRITING_APP : mkvmerge v7.2.0 ('On Every Street') 64bit built on Sep 13 2014 15:52:10
_STATISTICS_WRITING_DATE_UTC : 2014-11-29 12:04:08
_STATISTICS_TAGS : BPS DURATION NUMBER_OF_FRAMES NUMBER_OF_BYTES
Video
ID : 1
Format : AVC
Format/Info : Advanced Video Codec
Format profile : [email protected]
Format settings, CABAC : Yes
Format settings, ReFrames : 4 frames
Codec ID : V_MPEG4/ISO/AVC
Duration : 2h 5mn
Bit rate : 3 508 Kbps
Width : 704 pixels
Height : 576 pixels
Display aspect ratio : 4:3
Frame rate mode : Constant
Frame rate : 50.000 fps
Color space : YUV
Chroma subsampling : 4:2:0
Bit depth : 8 bits
Scan type : Progressive
Bits/(Pixel*Frame) : 0.173
Stream size : 3.06 GiB (93%)
Language : English
Default : No
Forced : No
DURATION : 02:05:02.920000000
NUMBER_OF_FRAMES : 375146
NUMBER_OF_BYTES : 3357531449
_STATISTICS_WRITING_APP : mkvmerge v7.2.0 ('On Every Street') 64bit built on Sep 13 2014 15:52:10
_STATISTICS_WRITING_DATE_UTC : 2014-11-29 12:04:08
_STATISTICS_TAGS : BPS DURATION NUMBER_OF_FRAMES NUMBER_OF_BYTES
Audio
ID : 2
Format : AC-3
Format/Info : Audio Coding 3
Mode extension : CM (complete main)
Format settings, Endianness : Big
Codec ID : A_AC3
Duration : 2h 5mn
Bit rate mode : Constant
Bit rate : 192 Kbps
Channel(s) : 2 channels
Channel positions : Front: L R
Sampling rate : 48.0 KHz
Compression mode : Lossy
Stream size : 172 MiB (5%)
Language : Russian
Default : Yes
Forced : No
-

Этап 8. 12.06.2005. Гран При Канады, Монреаль

-FileSize: 1749.63 Mb ( 1 834 614 784 bytes )
Play length: 01:54:24.560 (171614 frames)
Video: 680x510 (1.33:1), 25 fps, DivX Codec 6.8.5/6.9.1 ~2000 kbps avg, 0.23 bit/pixel
Audio: 44.100 kHz, MPEG Layer 3, 2 ch, ~128.00 kbps avg-

Media Info


General
Format : AVI
Format/Info : Audio Video Interleave
File size : 1.71 GiB
Duration : 1h 54mn
Overall bit rate : 2 138 Kbps
Movie name : 2005 Grand Prix du Canada round 8 ru
Writing application : VirtualDubMod 1.5.10.3 (build 2550/release)
Writing library : VirtualDubMod build 2550/release
Video
ID : 0
Format : MPEG-4 Visual
Format settings, BVOP : 3
Format settings, QPel : No
Format settings, GMC : No warppoints
Format settings, Matrix : Default (H.263)
Muxing mode : Packed bitstream
Codec ID : DX50
Codec ID/Hint : DivX 5
Duration : 1h 54mn
Bit rate : 2 000 Kbps
Width : 680 pixels
Height : 510 pixels
Display aspect ratio : 4:3
Frame rate : 25.000 fps
Color space : YUV
Chroma subsampling : 4:2:0
Bit depth : 8 bits
Scan type : Progressive
Compression mode : Lossy
Bits/(Pixel*Frame) : 0.231
Stream size : 1.60 GiB (94%)
Writing library : DivX 6.8.5 (UTC 2009-08-20)
Audio
ID : 1
Format : MPEG Audio
Format version : Version 1
Format profile : Layer 3
Mode : Joint stereo
Mode extension : MS Stereo
Codec ID : 55
Codec ID/Hint : MP3
Duration : 1h 54mn
Bit rate mode : Constant
Bit rate : 128 Kbps
Channel(s) : 2 channels
Sampling rate : 44.1 KHz
Compression mode : Lossy
Stream size : 105 MiB (6%)
Alignment : Split accross interleaves
Interleave, duration : 40 ms (1.00 video frame)
Interleave, preload duration : 500 ms
Writing library : LAME3.99.5
-

Этап 9. 19.06.2005. Гран При США, Индианаполис

-FileSize: 1611.66 Mb ( 1 689 944 064 bytes )
Play length: 01:45:25.720 (158143 frames)
Video: 680x510 (1.33:1), 25 fps, DivX Codec 6.8.5/6.9.1 ~1999 kbps avg, 0.23 bit/pixel
Audio: 44.100 kHz, MPEG Layer 3, 2 ch, ~128.00 kbps avg-

Media Info


General
Format : AVI
Format/Info : Audio Video Interleave
File size : 1.57 GiB
Duration : 1h 45mn
Overall bit rate : 2 137 Kbps
Movie name : 2005 United States Grand Prix round 9 ru
Writing application : VirtualDubMod 1.5.10.3 (build 2550/release)
Writing library : VirtualDubMod build 2550/release
Video
ID : 0
Format : MPEG-4 Visual
Format settings, BVOP : 3
Format settings, QPel : No
Format settings, GMC : No warppoints
Format settings, Matrix : Default (H.263)
Muxing mode : Packed bitstream
Codec ID : DX50
Codec ID/Hint : DivX 5
Duration : 1h 45mn
Bit rate : 2 000 Kbps
Width : 680 pixels
Height : 510 pixels
Display aspect ratio : 4:3
Frame rate : 25.000 fps
Color space : YUV
Chroma subsampling : 4:2:0
Bit depth : 8 bits
Scan type : Progressive
Compression mode : Lossy
Bits/(Pixel*Frame) : 0.231
Stream size : 1.47 GiB (94%)
Writing library : DivX 6.8.5 (UTC 2009-08-20)
Audio
ID : 1
Format : MPEG Audio
Format version : Version 1
Format profile : Layer 3
Mode : Joint stereo
Mode extension : MS Stereo
Codec ID : 55
Codec ID/Hint : MP3
Duration : 1h 45mn
Bit rate mode : Constant
Bit rate : 128 Kbps
Channel(s) : 2 channels
Sampling rate : 44.1 KHz
Compression mode : Lossy
Stream size : 96.5 MiB (6%)
Alignment : Split accross interleaves
Interleave, duration : 40 ms (1.00 video frame)
Interleave, preload duration : 500 ms
Writing library : LAME3.99r
Encoding settings : -m j -V 4 -q 0 -lowpass 17 -b 128
-

Этап 10. 03.07.2005. Гран При Франции, Маньи-Кур

-FileSize: 1798.44 Mb ( 1 885 796 352 bytes )
Play length: 01:57:24.680 (176117 frames)
Video: 680x510 (1.33:1), 25 fps, DivX Codec 6.8.5/6.9.1 ~2003 kbps avg, 0.23 bit/pixel
Audio: 44.100 kHz, MPEG Layer 3, 2 ch, ~128.00 kbps avg-

Media Info


General
Format : AVI
Format/Info : Audio Video Interleave
File size : 1.76 GiB
Duration : 1h 57mn
Overall bit rate : 2 142 Kbps
Movie name : 2005 91e Grand Prix de France round 10 ru
Writing application : VirtualDubMod 1.5.10.3 (build 2550/release)
Video
ID : 0
Format : MPEG-4 Visual
Format settings, BVOP : 1
Format settings, QPel : No
Format settings, GMC : No warppoints
Format settings, Matrix : Default (H.263)
Muxing mode : Packed bitstream
Codec ID : DX50
Codec ID/Hint : DivX 5
Duration : 1h 57mn
Bit rate : 2 004 Kbps
Width : 680 pixels
Height : 510 pixels
Display aspect ratio : 4:3
Frame rate : 25.000 fps
Color space : YUV
Chroma subsampling : 4:2:0
Bit depth : 8 bits
Scan type : Progressive
Compression mode : Lossy
Bits/(Pixel*Frame) : 0.231
Stream size : 1.64 GiB (94%)
Writing library : DivX 6.8.5 (UTC 2009-08-20)
Audio
ID : 1
Format : MPEG Audio
Format version : Version 1
Format profile : Layer 3
Mode : Joint stereo
Mode extension : MS Stereo
Codec ID : 55
Codec ID/Hint : MP3
Duration : 1h 57mn
Bit rate mode : Constant
Bit rate : 128 Kbps
Channel(s) : 2 channels
Sampling rate : 44.1 KHz
Compression mode : Lossy
Stream size : 107 MiB (6%)
Alignment : Split accross interleaves
Interleave, duration : 40 ms (1.00 video frame)
Interleave, preload duration : 500 ms
Writing library : LAME3.99r
Encoding settings : -m j -V 4 -q 0 -lowpass 17 -b 128
-

Этап 11. 10.07.2005. Гран При Великобритании, Силверстоун

-File size: 1850.56 MBytes (1 940 452 833 Bytes)
Duration: 01:43:09.973
Overall bitrate: 2508 Kbps
Video: 720x576 (4:3) @ 768x576, 25.000 fps, AVC
Audio: Russian, 48.0 KHz, AAC LC, 2 ch-

Media Info


General
Unique ID : 225001438209479342477280268920560540237 (0xA945B3638D2554349677A36CA1ABDA4D)
Format : Matroska
Format version : Version 4 / Version 2
File size : 1.81 GiB
Duration : 1h 43mn
Overall bit rate : 2 508 Kbps
Movie name : 2005 Foster's British Grand Prix round 11 ru
Encoded date : UTC 2014-11-29 12:14:08
Writing application : mkvmerge v7.2.0 ('On Every Street') 64bit built on Sep 13 2014 15:52:10
Writing library : libebml v1.3.0 + libmatroska v1.4.1
DURATION : 01:43:09.973000000
NUMBER_OF_FRAMES : 290155
NUMBER_OF_BYTES : 99039573
_STATISTICS_WRITING_APP : mkvmerge v7.2.0 ('On Every Street') 64bit built on Sep 13 2014 15:52:10
_STATISTICS_WRITING_DATE_UTC : 2014-11-29 12:14:08
_STATISTICS_TAGS : BPS DURATION NUMBER_OF_FRAMES NUMBER_OF_BYTES
Video
ID : 1
Format : AVC
Format/Info : Advanced Video Codec
Format profile : [email protected]
Format settings, CABAC : Yes
Format settings, ReFrames : 3 frames
Codec ID : V_MPEG4/ISO/AVC
Duration : 1h 43mn
Nominal bit rate : 2 378 Kbps
Width : 720 pixels
Height : 576 pixels
Display aspect ratio : 4:3
Frame rate mode : Constant
Frame rate : 25.000 fps
Standard : PAL
Color space : YUV
Chroma subsampling : 4:2:0
Bit depth : 8 bits
Scan type : Progressive
Bits/(Pixel*Frame) : 0.229
Writing library : x264 core 129 r2245 bc13772
Encoding settings : cabac=1 / ref=2 / deblock=1:0:0 / analyse=0x3:0x113 / me=hex / subme=7 / psy=1 / psy_rd=1.00:0.00 / mixed_ref=1 / me_range=16 / chroma_me=1 / trellis=1 / 8x8dct=1 / cqm=0 / deadzone=21,11 / fast_pskip=1 / chroma_qp_offset=-2 / threads=6 / lookahead_threads=1 / sliced_threads=0 / nr=0 / decimate=1 / interlaced=0 / bluray_compat=0 / constrained_intra=0 / bframes=3 / b_pyramid=1 / b_adapt=1 / b_bias=0 / direct=1 / weightb=1 / open_gop=0 / weightp=2 / keyint=250 / keyint_min=25 / scenecut=40 / intra_refresh=0 / rc_lookahead=40 / rc=2pass / mbtree=1 / bitrate=2378 / ratetol=1.0 / qcomp=0.60 / qpmin=0 / qpmax=69 / qpstep=4 / cplxblur=20.0 / qblur=0.5 / ip_ratio=1.40 / aq=1:1.00
Language : English
Default : Yes
Forced : No
Audio
ID : 2
Format : AAC
Format/Info : Advanced Audio Codec
Format profile : LC
Codec ID : A_AAC
Duration : 1h 43mn
Channel(s) : 2 channels
Channel positions : Front: L R
Sampling rate : 48.0 KHz
Compression mode : Lossy
Language : Russian
Default : Yes
Forced : No
-

Этап 12. 24.07.2005. Гран При Германии, Хокенхайм

-FileSize: 1374.60 Mb ( 1 441 370 112 bytes )
Play length: 01:51:11.720 (166793 frames)
Video: 640x480 (1.33:1), 25 fps, XviD Final 1.0.3 (build 37) ~1590 kbps avg, 0.21 bit/pixel
Audio: 44.100 kHz, MPEG Layer 3, 2 ch, ~127.70 kbps avg-

Media Info


General
Format : AVI
Format/Info : Audio Video Interleave
File size : 1.34 GiB
Duration : 1h 51mn
Overall bit rate : 1 728 Kbps
Movie name : 2005 Grosser Mobil 1 Preis von Deutschland round 12 ru
Writing application : VirtualDubMod 1.5.10.3 (build 2550/release)
Writing library : VirtualDubMod build 2550/release
Video
ID : 0
Format : MPEG-4 Visual
Format profile : Advanced [email protected]
Format settings, BVOP : 1
Format settings, QPel : No
Format settings, GMC : No warppoints
Format settings, Matrix : Default (MPEG)
Muxing mode : Packed bitstream
Codec ID : XVID
Codec ID/Hint : XviD
Duration : 1h 51mn
Bit rate : 1 591 Kbps
Width : 640 pixels
Height : 480 pixels
Display aspect ratio : 4:3
Frame rate : 25.000 fps
Color space : YUV
Chroma subsampling : 4:2:0
Bit depth : 8 bits
Scan type : Progressive
Compression mode : Lossy
Bits/(Pixel*Frame) : 0.207
Stream size : 1.24 GiB (92%)
Writing library : XviD 1.0.3 (UTC 2004-12-20)
Audio
ID : 1
Format : MPEG Audio
Format version : Version 1
Format profile : Layer 3
Mode : Joint stereo
Codec ID : 55
Codec ID/Hint : MP3
Duration : 1h 51mn
Bit rate mode : Constant
Bit rate : 128 Kbps
Channel(s) : 2 channels
Sampling rate : 44.1 KHz
Compression mode : Lossy
Stream size : 102 MiB (7%)
Alignment : Split accross interleaves
Interleave, duration : 40 ms (1.00 video frame)
Interleave, preload duration : 500 ms
-

Этап 13. 31.07.2005. Гран При Венгрии, Хунгароринг

-File size: 3270.60 MBytes (3 429 474 347 Bytes)
Duration: 02:01:15.568
Overall bitrate: 3771 Kbps
Video: 704x576 (4:3) @ 768x576, 50.000 fps, AVC, ~3504 Kbps, 0.173 bits/pixel
Audio: Russian, 48.0 KHz, AC3, 2 ch, 192 Kbps-

Media Info


General
Unique ID : 211350066770770720043994733231772419374 (0x9F008ACFDC696C8688BF6F7A6FDE452E)
Format : Matroska
Format version : Version 4 / Version 2
File size : 3.19 GiB
Duration : 2h 1mn
Overall bit rate : 3 771 Kbps
Movie name : 2005 Marlboro Magyar Nagydij round 13 ru
Encoded date : UTC 2014-11-29 12:17:40
Writing application : mkvmerge v7.2.0 ('On Every Street') 64bit built on Sep 13 2014 15:52:10
Writing library : libebml v1.3.0 + libmatroska v1.4.1
DURATION : 02:01:15.552000000
NUMBER_OF_FRAMES : 227361
NUMBER_OF_BYTES : 174613248
_STATISTICS_WRITING_APP : mkvmerge v7.2.0 ('On Every Street') 64bit built on Sep 13 2014 15:52:10
_STATISTICS_WRITING_DATE_UTC : 2014-11-29 12:17:40
_STATISTICS_TAGS : BPS DURATION NUMBER_OF_FRAMES NUMBER_OF_BYTES
Video
ID : 1
Format : AVC
Format/Info : Advanced Video Codec
Format profile : [email protected]
Format settings, CABAC : Yes
Format settings, ReFrames : 4 frames
Codec ID : V_MPEG4/ISO/AVC
Duration : 2h 1mn
Bit rate : 3 504 Kbps
Width : 704 pixels
Height : 576 pixels
Display aspect ratio : 4:3
Frame rate mode : Constant
Frame rate : 50.000 fps
Color space : YUV
Chroma subsampling : 4:2:0
Bit depth : 8 bits
Scan type : Progressive
Bits/(Pixel*Frame) : 0.173
Stream size : 2.97 GiB (93%)
Language : English
Default : No
Forced : No
DURATION : 02:01:15.560000000
NUMBER_OF_FRAMES : 363778
NUMBER_OF_BYTES : 3251944819
_STATISTICS_WRITING_APP : mkvmerge v7.2.0 ('On Every Street') 64bit built on Sep 13 2014 15:52:10
_STATISTICS_WRITING_DATE_UTC : 2014-11-29 12:17:40
_STATISTICS_TAGS : BPS DURATION NUMBER_OF_FRAMES NUMBER_OF_BYTES
Audio
ID : 2
Format : AC-3
Format/Info : Audio Coding 3
Mode extension : CM (complete main)
Format settings, Endianness : Big
Codec ID : A_AC3
Duration : 2h 1mn
Bit rate mode : Constant
Bit rate : 192 Kbps
Channel(s) : 2 channels
Channel positions : Front: L R
Sampling rate : 48.0 KHz
Compression mode : Lossy
Delay relative to video : 16ms
Stream size : 167 MiB (5%)
Language : Russian
Default : Yes
Forced : No
-

Этап 14. 21.08.2005. Гран При Турции, Стамбул

-FileSize: 1376.13 Mb ( 1 442 971 648 bytes )
Play length: 01:36:21.600 (144540 frames)
Video: 640x480 (1.33:1), 25 fps, XviD Final 1.0.3 (build 37) ~1859 kbps avg, 0.24 bit/pixel
Audio: 44.100 kHz, MPEG Layer 3, 2 ch, ~127.70 kbps avg-

Media Info


General
Format : AVI
Format/Info : Audio Video Interleave
File size : 1.34 GiB
Duration : 1h 36mn
Overall bit rate : 1 997 Kbps
Movie name : 2005 Turkish Grand Prix round 14 ru
Writing application : VirtualDubMod 1.5.10.3 (build 2550/release)
Writing library : VirtualDubMod build 2550/release
Video
ID : 0
Format : MPEG-4 Visual
Format profile : Advanced [email protected]
Format settings, BVOP : 1
Format settings, QPel : No
Format settings, GMC : No warppoints
Format settings, Matrix : Default (MPEG)
Muxing mode : Packed bitstream
Codec ID : XVID
Codec ID/Hint : XviD
Duration : 1h 36mn
Bit rate : 1 859 Kbps
Width : 640 pixels
Height : 480 pixels
Display aspect ratio : 4:3
Frame rate : 25.000 fps
Color space : YUV
Chroma subsampling : 4:2:0
Bit depth : 8 bits
Scan type : Progressive
Compression mode : Lossy
Bits/(Pixel*Frame) : 0.242
Stream size : 1.25 GiB (93%)
Writing library : XviD 1.0.3 (UTC 2004-12-20)
Audio
ID : 1
Format : MPEG Audio
Format version : Version 1
Format profile : Layer 3
Mode : Joint stereo
Codec ID : 55
Codec ID/Hint : MP3
Duration : 1h 36mn
Bit rate mode : Constant
Bit rate : 128 Kbps
Channel(s) : 2 channels
Sampling rate : 44.1 KHz
Compression mode : Lossy
Stream size : 88.0 MiB (6%)
Alignment : Split accross interleaves
Interleave, duration : 40 ms (1.00 video frame)
Interleave, preload duration : 500 ms
-

Этап 15. 04.09.2005. Гран При Италии, Монца

-FileSize: 1385.34 Mb ( 1 452 638 208 bytes )
Play length: 01:48:30.000 (162750 frames)
Video: 640x480 (1.33:1), 25 fps, XviD Final 1.0.3 (build 37) ~1647 kbps avg, 0.21 bit/pixel
Audio: 44.100 kHz, MPEG Layer 3, 2 ch, ~127.70 kbps avg-

Media Info


General
Format : AVI
Format/Info : Audio Video Interleave
File size : 1.35 GiB
Duration : 1h 48mn
Overall bit rate : 1 785 Kbps
Movie name : 2005 76° Gran Premio Vodafone d'Italia round 15 ru
Writing application : VirtualDubMod 1.5.10.3 (build 2550/release)
Writing library : VirtualDubMod build 2550/release
Video
ID : 0
Format : MPEG-4 Visual
Format profile : Advanced [email protected]
Format settings, BVOP : 1
Format settings, QPel : No
Format settings, GMC : No warppoints
Format settings, Matrix : Default (MPEG)
Muxing mode : Packed bitstream
Codec ID : XVID
Codec ID/Hint : XviD
Duration : 1h 48mn
Bit rate : 1 648 Kbps
Width : 640 pixels
Height : 480 pixels
Display aspect ratio : 4:3
Frame rate : 25.000 fps
Color space : YUV
Chroma subsampling : 4:2:0
Bit depth : 8 bits
Scan type : Progressive
Compression mode : Lossy
Bits/(Pixel*Frame) : 0.215
Stream size : 1.25 GiB (92%)
Writing library : XviD 1.0.3 (UTC 2004-12-20)
Audio
ID : 1
Format : MPEG Audio
Format version : Version 1
Format profile : Layer 3
Codec ID : 55
Codec ID/Hint : MP3
Duration : 1h 48mn
Bit rate mode : Constant
Bit rate : 128 Kbps
Channel(s) : 2 channels
Sampling rate : 44.1 KHz
Compression mode : Lossy
Stream size : 99.1 MiB (7%)
Alignment : Split accross interleaves
Interleave, duration : 40 ms (1.00 video frame)
Interleave, preload duration : 500 ms
-

Этап 16. 11.09.2005. Гран При Бельгии, Спа-Франкоршамп

-FileSize: 1382.29 Mb ( 1 449 433 088 bytes )
Play length: 01:42:45.000 (154125 frames)
Video: 640x480 (1.33:1), 25 fps, XviD Final 1.0.3 (build 37) ~1743 kbps avg, 0.23 bit/pixel
Audio: 44.100 kHz, MPEG Layer 3, 2 ch, ~127.70 kbps avg-

Media Info


General
Format : AVI
Format/Info : Audio Video Interleave
File size : 1.35 GiB
Duration : 1h 42mn
Overall bit rate : 1 881 Kbps
Movie name : 2005 Belgian Grand Prix round 16 ru
Writing application : VirtualDubMod 1.5.10.3 (build 2550/release)
Writing library : VirtualDubMod build 2550/release
Video
ID : 0
Format : MPEG-4 Visual
Format profile : Advanced [email protected]
Format settings, BVOP : 1
Format settings, QPel : No
Format settings, GMC : No warppoints
Format settings, Matrix : Default (MPEG)
Muxing mode : Packed bitstream
Codec ID : XVID
Codec ID/Hint : XviD
Duration : 1h 42mn
Bit rate : 1 743 Kbps
Width : 640 pixels
Height : 480 pixels
Display aspect ratio : 4:3
Frame rate : 25.000 fps
Color space : YUV
Chroma subsampling : 4:2:0
Bit depth : 8 bits
Scan type : Progressive
Compression mode : Lossy
Bits/(Pixel*Frame) : 0.227
Stream size : 1.25 GiB (93%)
Writing library : XviD 1.0.3 (UTC 2004-12-20)
Audio
ID : 1
Format : MPEG Audio
Format version : Version 1
Format profile : Layer 3
Codec ID : 55
Codec ID/Hint : MP3
Duration : 1h 42mn
Bit rate mode : Constant
Bit rate : 128 Kbps
Channel(s) : 2 channels
Sampling rate : 44.1 KHz
Compression mode : Lossy
Stream size : 93.9 MiB (7%)
Alignment : Split accross interleaves
Interleave, duration : 40 ms (1.00 video frame)
Interleave, preload duration : 500 ms
-

Этап 17. 25.09.2005. Гран При Бразилии, Интерлагос

-FileSize: 906.74 Mb ( 950 790 144 bytes )
Play length: 01:43:39.160 (155479 frames)
Video: 544x400 (1.36:1), 25 fps, DivX Codec 6.0 ~1021 kbps avg, 0.19 bit/pixel
Audio: 48 kHz, Microsoft MPEG, 2 ch, ~192.00 kbps avg-

Media Info


General
Format : AVI
Format/Info : Audio Video Interleave
File size : 907 MiB
Duration : 1h 43mn
Overall bit rate : 1 223 Kbps
Movie name : 2005 34° Grande Premio do Brasil round 17 ru
Writing application : VirtualDubMod 1.5.10.3 (build 2550/release)
Writing library : VirtualDubMod build 2550/release
Video
ID : 0
Format : MPEG-4 Visual
Format settings, BVOP : Yes
Format settings, QPel : No
Format settings, GMC : No warppoints
Format settings, Matrix : Default (H.263)
Codec ID : DX50
Codec ID/Hint : DivX 5
Duration : 1h 43mn
Bit rate : 1 021 Kbps
Width : 544 pixels
Height : 400 pixels
Display aspect ratio : 4:3
Frame rate : 25.000 fps
Color space : YUV
Chroma subsampling : 4:2:0
Bit depth : 8 bits
Scan type : Progressive
Compression mode : Lossy
Bits/(Pixel*Frame) : 0.188
Stream size : 757 MiB (84%)
Writing library : DivX 6.0.0 (UTC 2005-06-15)
Audio
ID : 1
Format : MPEG Audio
Format version : Version 1
Format profile : Layer 2
Codec ID : 50
Duration : 1h 43mn
Bit rate mode : Constant
Bit rate : 192 Kbps
Channel(s) : 2 channels
Sampling rate : 48.0 KHz
Compression mode : Lossy
Delay relative to video : 3ms
Stream size : 142 MiB (16%)
Alignment : Split accross interleaves
Interleave, duration : 40 ms (1.00 video frame)
Interleave, preload duration : 500 ms
-

Этап 18. 09.10.2005. Гран При Японии, Судзука

-File size: 2905.68 MBytes (3 046 823 524 Bytes)
Duration: 01:52:01.748
Overall bitrate: 3626 Kbps
Video: 704x576 (4:3) @ 768x576, 50.000 fps, AVC, ~3362 Kbps, 0.166 bits/pixel
Audio: Russian, 48.0 KHz, AC3, 2 ch, 192 Kbps-

Media Info


General
Unique ID : 212660155037669923250080357145151145277 (0x9FFCDB2684F1A428B72FFDE8FB6E053D)
Format : Matroska
Format version : Version 4 / Version 2
File size : 2.84 GiB
Duration : 1h 52mn
Overall bit rate : 3 626 Kbps
Movie name : 2005 Fuji Television Japanese Grand Prix round 18 ru
Encoded date : UTC 2014-11-29 12:26:02
Writing application : mkvmerge v7.2.0 ('On Every Street') 64bit built on Sep 13 2014 15:52:10
Writing library : libebml v1.3.0 + libmatroska v1.4.1
DURATION : 01:52:01.728000000
NUMBER_OF_FRAMES : 210054
NUMBER_OF_BYTES : 161321472
_STATISTICS_WRITING_APP : mkvmerge v7.2.0 ('On Every Street') 64bit built on Sep 13 2014 15:52:10
_STATISTICS_WRITING_DATE_UTC : 2014-11-29 12:26:02
_STATISTICS_TAGS : BPS DURATION NUMBER_OF_FRAMES NUMBER_OF_BYTES
Video
ID : 1
Format : AVC
Format/Info : Advanced Video Codec
Format profile : [email protected]
Format settings, CABAC : Yes
Format settings, ReFrames : 4 frames
Codec ID : V_MPEG4/ISO/AVC
Duration : 1h 52mn
Bit rate : 3 362 Kbps
Width : 704 pixels
Height : 576 pixels
Display aspect ratio : 4:3
Frame rate mode : Constant
Frame rate : 50.000 fps
Color space : YUV
Chroma subsampling : 4:2:0
Bit depth : 8 bits
Scan type : Progressive
Bits/(Pixel*Frame) : 0.166
Stream size : 2.63 GiB (93%)
Language : English
Default : Yes
Forced : No
DURATION : 01:52:01.720000000
NUMBER_OF_FRAMES : 336086
NUMBER_OF_BYTES : 2882816738
_STATISTICS_WRITING_APP : mkvmerge v7.2.0 ('On Every Street') 64bit built on Sep 13 2014 15:52:10
_STATISTICS_WRITING_DATE_UTC : 2014-11-29 12:26:02
_STATISTICS_TAGS : BPS DURATION NUMBER_OF_FRAMES NUMBER_OF_BYTES
Audio
ID : 2
Format : AC-3
Format/Info : Audio Coding 3
Mode extension : CM (complete main)
Format settings, Endianness : Big
Codec ID : A_AC3
Duration : 1h 52mn
Bit rate mode : Constant
Bit rate : 192 Kbps
Channel(s) : 2 channels
Channel positions : Front: L R
Sampling rate : 48.0 KHz
Compression mode : Lossy
Delay relative to video : 20ms
Stream size : 154 MiB (5%)
Language : Russian
Default : Yes
Forced : No
-

Этап 19. 16.10.2005. Гран При Китая, Шанхай

-FileSize: 1377.96 Mb ( 1 444 900 864 bytes )
Play length: 01:51:55.919 (167898 frames)
Video: 704x528 (1.33:1), 25 fps, XviD Final 1.0.3 (build 37) ~1519 kbps avg, 0.16 bit/pixel
Audio: 48 kHz, MPEG Layer 3, 2 ch, ~192.00 kbps avg-

Media Info


General
Format/Info : Audio Video Interleave
File size : 1.35 GiB
Duration : 1h 51mn
Overall bit rate : 1 721 Kbps
Movie name : 2005 Sinopec Chinese Grand Prix round 19 ru
Writing application : VirtualDubMod 1.5.10.3 (build 2550/release)
Writing library : VirtualDubMod build 2550/release
Video
ID : 0
Format : MPEG-4 Visual
Format profile : Advanced [email protected]
Format settings, BVOP : 1
Format settings, QPel : No
Format settings, GMC : No warppoints
Format settings, Matrix : Default (MPEG)
Muxing mode : Packed bitstream
Codec ID : XVID
Codec ID/Hint : XviD
Duration : 1h 51mn
Bit rate : 1 520 Kbps
Width : 704 pixels
Height : 528 pixels
Display aspect ratio : 4:3
Frame rate : 25.000 fps
Color space : YUV
Chroma subsampling : 4:2:0
Bit depth : 8 bits
Scan type : Progressive
Compression mode : Lossy
Bits/(Pixel*Frame) : 0.164
Stream size : 1.19 GiB (88%)
Writing library : XviD 1.0.3 (UTC 2004-12-20)
Audio
ID : 1
Format : MPEG Audio
Format version : Version 1
Format profile : Layer 3
Codec ID : 55
Codec ID/Hint : MP3
Duration : 1h 51mn
Bit rate mode : Constant
Bit rate : 192 Kbps
Channel(s) : 2 channels
Sampling rate : 48.0 KHz
Compression mode : Lossy
Stream size : 154 MiB (11%)
Alignment : Split accross interleaves
Interleave, duration : 40 ms (1.00 video frame)
Interleave, preload duration : 500 ms
-

Скриншоты




-


Последний раз редактировалось: M.J. (2015-09-29 13:34), всего редактировалось 2 раз(а)

Создавать темы 24-Сен-2015 14:33

[Профиль]  [ЛС] 

Farnerud

Стаж: 6 лет 10 месяцев

Сообщений: 13

2005????

Создавать темы 24-Сен-2015 22:10

[Профиль]  [ЛС] 

M.J. ®

Стаж: 4 года 2 месяца

Сообщений: 25

Симпатии: 8

```

Создавать темы 25-Сен-2015 13:34

[Профиль]  [ЛС] 
Показать сообщения:    
Ответить на тему

Текущее время: 21-Окт 20:54

Часовой пояс: UTC + 5



Вы не можете начинать темы
Вы не можете отвечать на сообщения
Вы не можете редактировать свои сообщения
Вы не можете удалять свои сообщения
Вы не можете голосовать в опросах
Вы не можете прикреплять файлы к сообщениям
Вы не можете скачивать файлы