Мир Юрского периода / Jurassic World (Колин Треворроу / Colin Trevorrow) [2015., фантастика, приключения, боевик, HDTVRip 1080p]

Ответить на тему
 

Voteks ®

Стаж: 4 года 3 месяца

Сообщений: 9

Симпатии: 6

Мир Юрского периода-Jurassic World-«Park is Open»
Год выпуска: 2015
Страна: США, Китай
Жанр: фантастика, приключения, боевик
Продолжительность: 02:04:02
Перевод: Профессиональный (полное дублирование) Rus / Eng / Uzb-Режиссеры: Колин Треворроу | Colin Trevorrow-Сценарий: Рик Джаффа, Аманда Сильвер, Колин Треворроу
Продюсер: Патрик Краули, Фрэнк Маршалл, Джон Дж. Джашни
Оператор: Джон Шварцман
Композитор: Майкл Джаккино
Художник: Эд Верро, Пейдж Бакнер, Ник Крокко
Монтаж: Кевин Ститт-В ролях: Крис Пратт, Брайс Даллас Ховард, Винсент Д’Онофрио, Ник Дж. Робинсон, Тай Симпкинс, Омар Си, Ирфан Кхан, Брайан Ти, Джейк Джонсон, Б.Д. Вонг-Описание: Тысячи людей спешат увидеть Мир Юрского периода, но безопасное на первый взгляд развлечение может обернуться угрозой для всего человечества…- -Бюджет: $150 000 000
Сборы в мире: + $843 900 000 = $1 413 187 130
Сборы в России: pic $23 198 887
Премьера (мир): 29 мая 2015
Премьера (РФ): 11 июня 2015, «UPI»-Качество: HDTVRip 1080p
Формат: MKV
Видео кодек: AVC
Аудио кодек: AC3, MP3
Видео данные: MPEG4 Video (H264) 1908x952 29.970fps 4 500 Kbps
Аудио данные #1: Dolby AC3 48000Hz stereo 256kbps Rus
Аудио данные #2: Dolby AC3 48000Hz stereo 256kbps Original
Аудио данные #3: MP3 44100Hz stereo 192kbps Uzbek

HDMedia

General
Unique ID                        : 238720014551270982257162320758805701752 (0xB397CD6C5F6402D5BCDBC2C46B6D2478)
Complete name                    : D:\Moy Razdacha\Мир.Юрского.периода.2015.HDTVRip.1080p.Uzb.Rus.Eng.mkv
Format                           : Matroska
File size                        : 4.51 GiB
Duration                         : 2h 4mn
Overall bit rate                 : 5 204 Kbps
Encoded date                     : UTC 2015-08-14 06:16:50
Writing application              : mkvmerge v7.9.0 ('Birds') 64bit
Writing library                  : libebml v1.3.1 + libmatroska v1.4.2
Video
ID                               : 1
Format                           : AVC
Format/Info                      : Advanced Video Codec
Format profile                   : [email protected]
Format settings, CABAC           : Yes
Format settings, ReFrames        : 4 frames
Codec ID                         : V_MPEG4/ISO/AVC
Duration                         : 2h 4mn
Bit rate                         : 4 500 Kbps
Width                            : 1 908 pixels
Height                           : 952 pixels
Display aspect ratio             : 2.004
Frame rate                       : 29.970 fps
Color space                      : YUV
Chroma subsampling               : 4:2:0
Bit depth                        : 8 bits
Scan type                        : Progressive
Bits/(Pixel*Frame)               : 0.083
Stream size                      : 3.81 GiB (84%)
Title                            : Ìèð.Þðñêîãî.ïåðèîäà.2015.HDTVRip.b1080pB.nnm-club
Writing library                  : x264 core 146 r2538 121396c
Encoding settings                : cabac=1 / ref=4 / deblock=1:0:0 / analyse=0x3:0x3 / me=dia / subme=1 / psy=1 / psy_rd=1.00:0.00 / mixed_ref=0 / me_range=16 / chroma_me=1 / trellis=0 / 8x8dct=1 / cqm=0 / deadzone=21,11 / fast_pskip=1 / chroma_qp_offset=-2 / threads=24 / lookahead_threads=4 / sliced_threads=0 / nr=0 / decimate=1 / interlaced=0 / bluray_compat=0 / constrained_intra=0 / bframes=1 / b_pyramid=0 / b_adapt=1 / b_bias=0 / direct=1 / weightb=1 / open_gop=0 / weightp=1 / keyint=300 / keyint_min=29 / scenecut=40 / intra_refresh=0 / rc_lookahead=0 / rc=2pass / mbtree=0 / bitrate=4500 / ratetol=1.0 / qcomp=0.60 / qpmin=0 / qpmax=69 / qpstep=4 / cplxblur=20.0 / qblur=0.5 / vbv_maxrate=20000 / vbv_bufsize=20000 / nal_hrd=none / filler=0 / ip_ratio=1.40 / pb_ratio=1.30 / aq=2:1.00
Audio #1
ID                               : 2
Format                           : AC-3
Format/Info                      : Audio Coding 3
Mode extension                   : CM (complete main)
Codec ID                         : A_AC3
Duration                         : 2h 4mn
Bit rate mode                    : Constant
Bit rate                         : 256 Kbps
Channel(s)                       : 2 channels
Channel positions                : Front: L R
Sampling rate                    : 48.0 KHz
Bit depth                        : 16 bits
Compression mode                 : Lossy
Stream size                      : 227 MiB (5%)
Title                            : Line
Language                         : Russian
Audio #2
ID                               : 3
Format                           : AC-3
Format/Info                      : Audio Coding 3
Mode extension                   : CM (complete main)
Codec ID                         : A_AC3
Duration                         : 2h 4mn
Bit rate mode                    : Constant
Bit rate                         : 256 Kbps
Channel(s)                       : 2 channels
Channel positions                : Front: L R
Sampling rate                    : 48.0 KHz
Bit depth                        : 16 bits
Compression mode                 : Lossy
Stream size                      : 227 MiB (5%)
Title                            : Original
Language                         : English
Audio #3
ID                               : 4
Format                           : MPEG Audio
Format version                   : Version 1
Format profile                   : Layer 3
Mode                             : Joint stereo
Codec ID                         : A_MPEG/L3
Codec ID/Hint                    : MP3
Duration                         : 2h 4mn
Bit rate mode                    : Constant
Bit rate                         : 192 Kbps
Channel(s)                       : 2 channels
Sampling rate                    : 44.1 KHz
Compression mode                 : Lossy
Stream size                      : 170 MiB (4%)
Language                         : Uzbek

Screens







Последний раз редактировалось: Voteks (2015-09-24 18:56), всего редактировалось 1 раз

Создавать темы 24-Сен-2015 18:50

[Профиль]  [ЛС] 

Voteks ®

Стаж: 4 года 3 месяца

Сообщений: 9

Симпатии: 6

модеры проверите

Создавать темы 24-Сен-2015 18:54

[Профиль]  [ЛС] 

Страх

Стаж: 4 года

Сообщений: 1131

Симпатии: 448

Скрины у вас там разные.
уберите Перевод: Профессиональный (полное дублирование) это - Rus / Eng / Uzb

Создавать темы 26-Сен-2015 13:52

[Профиль]  [ЛС] 
Показать сообщения:    
Ответить на тему

Текущее время: 21-Окт 02:30

Часовой пояс: UTC + 5



Вы не можете начинать темы
Вы не можете отвечать на сообщения
Вы не можете редактировать свои сообщения
Вы не можете удалять свои сообщения
Вы не можете голосовать в опросах
Вы не можете прикреплять файлы к сообщениям
Вы не можете скачивать файлы