Ангелы возмездия / Les anges exterminateurs (Жан-Клод Бриссо) [2006, Франция, фэнтези, драма, DVDRip] (MVO)

Ответить на тему
 

vlacom ®

Стаж: 4 года 5 месяцев

Сообщений: 44

Симпатии: 21

Ангелы возмездия / Les anges exterminateurs
Страна: Франция
Жанр: фэнтези, драма
Год выпуска: 2006
Продолжительность: 01:38:47
Перевод: Профессиональный (многоголосый закадровый)
Cубтитры: нет
Режиссер: Жан-Клод Бриссо
В ролях: Фредерик ван ден Дрише
Маруся Дюбрёй
Лизе Беллинк
Мари Аллан
Софи Бонне
Рафаэль Годин
Маргарет Зеноу
Жанна Селлар
Виржини Леже
Эстель Галарме
Описание: Герой — кинорежиссер Франсуа, который просит девушек на кинопробах изобразить оргазм.
Одна из них так входит в роль, что впервые достигает этого приятного состояния. Другая не на шутку влюбляется в партнершу,
третья — в самого режиссера. Франсуа обнаруживает, что пробудил вокруг себя демонов, которые и есть ангелы возмездия.
Девушки устраивают истерики, рушат декорации, подают на Франсуа в суд и засаживают в тюрьму.
Его оскорбленная жена-ассистентка уходит, люди в масках избивают его до полусмерти,
и только вмешательство одного из двух ангелов спасает несчастного художника от прямого спуска в ад.
Качество видео: DVDRip
Формат видео: AVI
Видео: 720x536, 2193 Кбит/сек,25,000 кадров/сек, XVID
Аудио: AC-3, 384 Кбит/сек, 6 каналов, 48,0 КГц

MediaInfo

Общее
Полное имя : I:\РАЗДАЧА\Ангелы возмездия.2006.XviD.DVDRip.avi
Формат : AVI
Формат/Информация : Audio Video Interleave
Размер файла : 1,78 Гбайт
Продолжительность : 1 ч. 38 м.
Общий поток : 2587 Кбит/сек
Программа кодирования : VirtualDubMod 1.5.10.2 (build 2540/release)
Библиотека кодирования : VirtualDubMod build 2540/release
Видео
Идентификатор : 0
Формат : MPEG-4 Visual
Профиль формата : Advanced [email protected]
Параметр BVOP формата : 2
Параметр QPel формата : Нет
Параметр GMC формата : Без точки перехода
Параметр матрицы формата : Default (H.263)
Идентификатор кодека : XVID
Идентификатор кодека/Подсказка : XviD
Продолжительность : 1 ч. 38 м.
Битрейт : 2193 Кбит/сек
Ширина : 720 пикселей
Высота : 536 пикселей
Соотношение сторон : 4:3
Частота кадров : 25,000 кадров/сек
Цветовое пространство : YUV
Субдискретизация насыщенности : 4:2:0
Битовая глубина : 8 бит
Тип развёртки : Прогрессивная
Метод сжатия : С потерями
Бит/(Пиксели*Кадры) : 0.227
Размер потока : 1,51 Гбайт (85%)
Библиотека кодирования : XviD 1.2.1 (UTC 2008-12-04)
Аудио
Идентификатор : 1
Формат : AC-3
Формат/Информация : Audio Coding 3
Расширение режима : CM (complete main)
Параметр Endianness формата : Big
Идентификатор кодека : 2000
Продолжительность : 1 ч. 38 м.
Вид битрейта : Постоянный
Битрейт : 384 Кбит/сек
Каналы : 6 каналов
Расположение каналов : Front: L C R, Side: L R, LFE
Частота : 48,0 КГц
Битовая глубина : 16 бит
Метод сжатия : С потерями
Размер потока : 271 Мбайт (15%)
Выравнивание : Разделение по промежуткам
Продолжительность промежутка : 40 мс. (1,00 видеокадр)
Время предзагрузки промежутка : 500 мс.

Скриншот c названием фильма

Скриншоты








Создавать темы 25-Сен-2015 09:55

[Профиль]  [ЛС] 

Ihlos

Стаж: 1 год 5 месяцев

Сообщений: 2

vlacom, дай раздачу

Создавать темы 02-Дек-2016 12:12

[Профиль]  [ЛС] 

cnn

Стаж: 1 год 11 месяцев

Сообщений: 29

Симпатии: 2

vlacom, спасибо

Создавать темы 03-Дек-2016 19:55

[Профиль]  [ЛС] 
Показать сообщения:    
Ответить на тему

Текущее время: 13-Дек 02:23

Часовой пояс: UTC + 5



Вы не можете начинать темы
Вы не можете отвечать на сообщения
Вы не можете редактировать свои сообщения
Вы не можете удалять свои сообщения
Вы не можете голосовать в опросах
Вы не можете прикреплять файлы к сообщениям
Вы не можете скачивать файлы