Любовь и милосердие / Love & Mercy (Уильям Полад / Bill Pohlad) [2015, США, драма, биография, музыка, HDRip] (Dub)

Ответить на тему
 

UZM ®

Стаж: 5 лет 5 месяцев

Сообщений: 169

Симпатии: 189

Любовь и милосердие / Love & Mercy
Страна: США
Жанр: драма, биография, музыка
Год выпуска: 2015
Продолжительность: 02:01:35
Перевод: Профессиональный (дублированный)
Cубтитры: нет
Режиссер: Уильям Полад / Bill Pohlad
В ролях: Элизабет Бэнкс, Пол Джаматти, Джон Кьюсак, Пол Дано, Кенни Вормолд, Джейк Эйбел, Джоэнна Гоуинг, Бретт Даверн, Грэхэм Роджерс, Брайан Уилсон
Описание: История затворнического автора песен Beach Boys и музыканта Брайана Уилсона, от его успехов с чрезвычайно влиятельными оркестровыми популярными альбомами к его нервному срыву и последующему столкновению с врачом, доктором Юджином Лэнди.
Доп. информация: Лента Уильяма Полада носит название песни Брайана Уилсона «Love and Mercy», которая является первым треком с дебютного сольного альбома музыканта. Звучащая в песне фраза «Love and Mercy that`s what you need tonight» относится к личной жизни самого Уилсона, который нуждался как в любви, так и в милосердии.
Качество видео: HDRip
Формат видео: AVI
Видео: Xvid, 720x400, 23.976fps, 1511kbps
Аудио: Dolby, AC3, 48,0Hz, stereo, 192kbps

MediaInfo

General
Complete name : I:\Кино\Любовь и милосердие. 2014. HDRip (AleksSin).avi
Format : AVI
Format/Info : Audio Video Interleave
File size : 1.45 GiB
Duration : 2h 1mn
Overall bit rate : 1 713 Kbps
Writing application : VirtualDubMod 1.5.10.3 | www.virtualdub-fr.org || (build 2550/release)
Writing library : VirtualDubMod build 2550/release
Video
ID : 0
Format : MPEG-4 Visual
Format profile : Advanced Simple@L5
Format settings, BVOP : 1
Format settings, QPel : No
Format settings, GMC : No warppoints
Format settings, Matrix : Custom
Codec ID : XVID
Codec ID/Hint : XviD
Duration : 2h 1mn
Bit rate : 1 512 Kbps
Width : 720 pixels
Height : 400 pixels
Display aspect ratio : 16:9
Frame rate : 23.976 fps
Color space : YUV
Chroma subsampling : 4:2:0
Bit depth : 8 bits
Scan type : Progressive
Compression mode : Lossy
Bits/(Pixel*Frame) : 0.219
Stream size : 1.28 GiB (88%)
Writing library : XviD 73
Audio
ID : 1
Format : AC-3
Format/Info : Audio Coding 3
Mode extension : CM (complete main)
Format settings, Endianness : Big
Codec ID : 2000
Duration : 2h 1mn
Bit rate mode : Constant
Bit rate : 192 Kbps
Channel(s) : 2 channels
Channel positions : Front: L R
Sampling rate : 48.0 KHz
Compression mode : Lossy
Stream size : 167 MiB (11%)
Alignment : Split accross interleaves
Interleave, duration : 42 ms (1.00 video frame)
Interleave, preload duration : 500 ms

Скриншот c названием фильма

Скриншоты

,
,
,

Создавать темы 25-Сен-2015 13:52

[Профиль]  [ЛС] 
Показать сообщения:    
Ответить на тему

Текущее время: 23-Окт 09:33

Часовой пояс: UTC + 5



Вы не можете начинать темы
Вы не можете отвечать на сообщения
Вы не можете редактировать свои сообщения
Вы не можете удалять свои сообщения
Вы не можете голосовать в опросах
Вы не можете прикреплять файлы к сообщениям
Вы не можете скачивать файлы