Выбор за нами / The Choice Is Ours (Роксанна Медоуз) [2015, США, Документальный, HDRip-AVC] [Фильм первый. Официальная версия Проекта Венера] (MVO)

Ответить на тему
 

HDavron ®

Стаж: 2 года 6 месяцев

Сообщений: 6

Симпатии: 22

Выбор за нами / The Choice Is Ours
Фильм первый. Официальная версия Проекта Венера

Страна: США
Жанр: Документальный
Год выпуска: 2015
Продолжительность: 00:59:06
Перевод: Профессиональный (многоголосый закадровый)
Cубтитры: нет
Режиссер: Роксанна Медоуз
В ролях: Жак Фреско, Джеффри Хоффман, Генри Шлингер, Дилан Рэтиган, Кэрен Хьюдс, Эбби Мартин, Эрин Эйд, Пол Райт, Марк Джейкобсон
Описание: Фильм исследует причины нашего образа действий с целью развеять миф о «человеческой природе» и показать, как среда формирует поведение. Вы также увидите, как наши ценности и поведение навязываются нам общественными институтами, как изжила себя денежная система, и насколько она неэффективна для удовлетворения потребностей человека.
Доп. информация: Первый фильм исследует причины нашего образа действий с целью развеять миф о «человеческой природе» и показать, как среда формирует поведение. Вы также увидите, как наши ценности и поведение навязываются нам общественными институтами, как изжила себя денежная система, и насколько она неэффективна для удовлетворения потребностей человека.
Второй фильм, премьера которого планируется в конце года, проиллюстрирует планы Проекта Венера по созданию совершенного нового мира с чистого листа — реконструкции общества, в котором высокий уровень жизни доступен каждому человеку без трудовой и долговой зависимости, при этом окружающая среда защищена.
Мы от всей души благодарим участников кампании по сбору средств и волонтеров Проекта Венера, которые приложили немалые усилия, для того чтобы этот фильм смог увидеть свет. Огромное спасибо!
Сайт фильма: http://thechoiceisoursmovie.com
Cайт проекта: http://www.thevenusproject.com
Качество видео: HDRip-AVC
Формат видео: MP4
Видео: AVC, 1280x720 (16:9), 25 fps, 1220 Кбит/сек
Аудио: AAC, 44,1 Khz, 126 Кбит/сек, 2 ch

MediaInfo

Общее
Полное имя : F:\Movies\ВЫБОР ЗА НАМИ Фильм первый Официальная версия Проекта Венера.mp4
Формат : MPEG-4
Профиль формата : Base Media
Идентификатор кодека : isom
Размер файла : 572 Мбайт
Продолжительность : 59 м.
Общий поток : 1352 Кбит/сек
Программа кодирования : Lavf55.22.100
Видео
Идентификатор : 1
Формат : AVC
Формат/Информация : Advanced Video Codec
Профиль формата : [email protected]
Параметр CABAC формата : Да
Параметр ReFrames формата : 3 кадра
Идентификатор кодека : avc1
Идентификатор кодека/Информация : Advanced Video Coding
Продолжительность : 59 м.
Битрейт : 1220 Кбит/сек
Ширина : 1280 пикселей
Высота : 720 пикселей
Соотношение сторон : 16:9
Режим частоты кадров : Постоянный
Частота кадров : 25,000 кадров/сек
Цветовое пространство : YUV
Субдискретизация насыщенности : 4:2:0
Битовая глубина : 8 бит
Тип развёртки : Прогрессивная
Бит/(Пиксели*Кадры) : 0.053
Размер потока : 516 Мбайт (90%)
Аудио
Идентификатор : 2
Формат : AAC
Формат/Информация : Advanced Audio Codec
Профиль формата : LC
Идентификатор кодека : 40
Продолжительность : 59 м.
Вид битрейта : Постоянный
Битрейт : 126 Кбит/сек
Каналы : 2 канала
Расположение каналов : Front: L R
Частота : 44,1 КГц
Метод сжатия : С потерями
Размер потока : 53,1 Мбайт (9%)

Скриншот c названием фильма

Скриншоты











Создавать темы 25-Сен-2015 18:18

[Профиль]  [ЛС] 

dilshod5254

Стаж: 6 лет 6 месяцев

Сообщений: 106

Симпатии: 14

если смотрели обратите внимание последние минуты фильма. там говорится о красивых вещах и мест но тех местах почти нет людей или их вообще нет. смотрю на это и не знаю что думать, что сказать, какие мои мысли сюда писать. если пищу что я изменю мир или хотя бы попытаюсь на это то это будет довольно смешно а если напишу что мне наплевать то завоевываю все общие критики. так что вы на счет этого думайте мне очень интересно как же вы смотрите на это какого ваша позиция на это?

Создавать темы 27-Сен-2015 00:38

[Профиль]  [ЛС] 

kvint

Стаж: 7 лет 8 месяцев

Сообщений: 84

Симпатии: 5

Есть инфа о второй части?

Создавать темы 10-Окт-2015 21:20

[Профиль]  [ЛС] 

snazirov

Стаж: 2 года 7 месяцев

Сообщений: 5

Уже вышло 3й серия добавьте хотя бы 2й серии

Создавать темы 22-Окт-2015 18:43

[Профиль]  [ЛС] 

HDavron ®

Стаж: 2 года 6 месяцев

Сообщений: 6

Симпатии: 22

Davomi http://tas-ix.me/viewtopic.php?t=115288

Создавать темы 30-Ноя-2016 18:27

[Профиль]  [ЛС] 
Показать сообщения:    
Ответить на тему

Текущее время: 18-Окт 10:53

Часовой пояс: UTC + 5



Вы не можете начинать темы
Вы не можете отвечать на сообщения
Вы не можете редактировать свои сообщения
Вы не можете удалять свои сообщения
Вы не можете голосовать в опросах
Вы не можете прикреплять файлы к сообщениям
Вы не можете скачивать файлы