Всё, что вы всегда хотели знать о сексе, но боялись спросить / Everything You Always Wanted to Know About Sex * But Were Afraid to Ask (Вуди Аллен / Woody Allen) [1972, США, комедия, HDTVRip] (MVO) (Original Eng)

Ответить на тему
 

ladysco ®

Стаж: 5 лет 1 месяц

Сообщений: 40

Симпатии: 56

Всё, что вы всегда хотели знать о сексе, но боялись спросить
Everything You Always Wanted to Know About Sex * But Were Afraid to Ask

Страна: США
Жанр: комедия
Год выпуска: 1972
Продолжительность: 01:24:35
Перевод: Профессиональный (многоголосый закадровый)
Cубтитры: нет
Оригинальная аудиодорожка: английский
Режиссер: Вуди Аллен / Woody Allen
В ролях: Вуди Аллен, Лу Джейкоби, Энтони Куэйл, Джин Уайлдер, Берт Рейнолдс, Тони Рэндолл
Описание: Комедия представляет собой попурри из семи киноновелл, пародирующих одноименную книгу сексопатолога Дейвида Рубена. Одна новелла совершенно не похожа на другую. Каждая из них - это интеллектуально-сатирично-ироничный ответ на такие «животрепещущие» для любого, так или иначе знакомого с сексом, вопросы как «Что такое афродизиаки?», «Что такое содомия?» или «Что происходит при эякуляции?». Похожи они только в одном - все смешны до колик. Причем остаются смешными и актуальными даже спустя столько лет после своего появления.
Качество видео: HDTVRip
Формат видео: AVI
Видео: XviD, 720x384, 25.000 fps, 1 680 Kbps, 0.244 bits/pixel
Аудио RUS: AC3, 48 kHz, 2 ch, 384 kbps
Аудио ENG: AC3, 48 kHz, 2 ch, 384 kbps
Детям до 17 лет обязательно присутствие родителей

MediaInfo

Format : AVI
Format/Info : Audio Video Interleave
File size : 1.45 GiB
Duration : 1h 24mn
Overall bit rate : 2 462 Kbps
Writing application : VirtualDubMod 1.5.10.2 (build 2540/release)
Writing library : VirtualDubMod build 2540/release
Video
ID : 0
Format : MPEG-4 Visual
Format profile : Advanced [email protected]
Format settings, BVOP : 1
Format settings, QPel : No
Format settings, GMC : No warppoints
Format settings, Matrix : Default (MPEG)
Muxing mode : Packed bitstream
Codec ID : XVID
Codec ID/Hint : XviD
Duration : 1h 24mn
Bit rate : 1 680 Kbps
Width : 720 pixels
Height : 384 pixels
Display aspect ratio : 1.85:1
Frame rate : 25.000 fps
Color space : YUV
Chroma subsampling : 4:2:0
Bit depth : 8 bits
Scan type : Progressive
Compression mode : Lossy
Bits/(Pixel*Frame) : 0.243
Stream size : 1 016 MiB (68%)
Writing library : XviD 1.2.1 (UTC 2008-12-04)
Audio #1
ID : 1
Format : AC-3
Format/Info : Audio Coding 3
Mode extension : CM (complete main)
Format settings, Endianness : Big
Codec ID : 2000
Duration : 1h 24mn
Bit rate mode : Constant
Bit rate : 384 Kbps
Channel(s) : 2 channels
Channel positions : Front: L R
Sampling rate : 48.0 KHz
Bit depth : 16 bits
Compression mode : Lossy
Stream size : 232 MiB (16%)
Alignment : Split accross interleaves
Interleave, duration : 40 ms (1.00 video frame)
Interleave, preload duratio : 500 ms
Audio #2
ID : 2
Format : AC-3
Format/Info : Audio Coding 3
Format profile : Dolby Digital
Mode extension : CM (complete main)
Format settings, Endianness : Big
Codec ID : 2000
Duration : 1h 24mn
Bit rate mode : Constant
Bit rate : 384 Kbps
Channel(s) : 2 channels
Channel positions : Front: L R
Sampling rate : 48.0 KHz
Bit depth : 16 bits
Compression mode : Lossy
Stream size : 232 MiB (16%)
Alignment : Split accross interleaves
Interleave, duration : 40 ms (1.00 video frame)
Interleave, preload duratio : 500 ms

Скриншоты

Создавать темы 25-Сен-2015 19:00

[Профиль]  [ЛС] 
Показать сообщения:    
Ответить на тему

Текущее время: 21-Авг 01:59

Часовой пояс: UTC + 5



Вы не можете начинать темы
Вы не можете отвечать на сообщения
Вы не можете редактировать свои сообщения
Вы не можете удалять свои сообщения
Вы не можете голосовать в опросах
Вы не можете прикреплять файлы к сообщениям
Вы не можете скачивать файлы